Lindsey Webster - A Woman Like Me (2020) [Official Digital Download 24/44]

Posted By: SERTiL
Lindsey Webster - A Woman Like Me (2020) [Official Digital Download 24/44]

Lindsey Webster - A Woman Like Me (2020)
FLAC (tracks) 24-bit/44.1 kHz | Time - 64:24 minutes | 756 MB
Studio Master, Official Digital Download | Artwork: Front Cover

Lindsey Webster is the ?rst vocalist to score 4 #1 Smooth Jazz radio hits in a row. She's been on the Billboard Contemporary Jazz chart for an amazing 120 weeks! A Woman Like Me, promises to be her breakout album. Highlights include the ?rst single, "Feels Like Forever," the sensuous "Always Love Me," the soulful "The Unknown" and the spirited "One Step Forward," making A Woman Like Me must have album!

Tracklist:
01. Feels Like Forever (5:31)
02. Close To You (5:35)
03. Only You (5:38)
04. One Step Forward (5:18)
05. Perspective (7:08)
06. Running Around (5:08)
07. A Woman Like Me (6:40)
08. Rain (5:16)
09. The Unknown (5:19)
10. Always Love Me (6:12)
11. Somewhere Over The Rainbow (6:45)

foobar2000 1.3.7 / Dynamic Range Meter 1.1.1
log date: 2020-03-25 11:26:30

––––––––––––––––––––––––––––––––––––––––
Analyzed: Lindsey Webster / A Woman Like Me
––––––––––––––––––––––––––––––––––––––––

DR Peak RMS Duration Track
––––––––––––––––––––––––––––––––––––––––
DR8 -0.50 dB -10.55 dB 5:31 01-Feels Like Forever
DR7 -0.50 dB -9.78 dB 5:35 02-Close To You
DR8 -0.50 dB -11.16 dB 5:38 03-Only You
DR7 -0.50 dB -9.78 dB 5:18 04-One Step Forward
DR7 -0.50 dB -9.89 dB 7:08 05-Perspective
DR7 -0.50 dB -9.18 dB 5:08 06-Running Around
DR8 -0.50 dB -12.29 dB 6:40 07-A Woman Like Me
DR6 -0.50 dB -9.43 dB 5:16 08-Rain
DR9 -0.50 dB -11.61 dB 5:19 09-The Unknown
DR8 -0.50 dB -10.79 dB 6:12 10-Always Love Me
DR7 -0.50 dB -12.06 dB 6:45 11-Somewhere Over The Rainbow
––––––––––––––––––––––––––––––––––––––––

Number of tracks: 11
Official DR value: DR7

Samplerate: 44100 Hz
Channels: 2
Bits per sample: 24
Bitrate: 1493 kbps
Codec: FLAC
================================================================================


Thanks to the Original customer.