Loran Qui - Twenty Twenty Black (2021) [Official Digital Download]

Posted By: pyatak
Loran Qui - Twenty Twenty Black (2021) [Official Digital Download]

Loran Qui - Twenty Twenty Black (2021) [Official Digital Download]
FLAC (tracks) 24-bit/44.1 kHz | Front Cover | Time - 43:04 minutes | 506 MB
Progressive Rock Label: DARK-Museum, Official Digital Download

Loren Qui released his new progressive rock album Twenty Twenty Black on June 18

TRACKLIST

1. Loran Qui - Season
2. Loran Qui - Masspress
3. Loran Qui - Never Surrender
4. Loran Qui - Banditism
5. Loran Qui - Paris
6. Loran Qui - Cognitive Fall
7. Loran Qui - Motor Psycho
8. Loran Qui - Derby
9. Loran Qui - Plane
10. Loran Qui - 8 Down

foobar2000 1.6.2 / Dynamic Range Meter 1.1.1
log date: 2021-06-23 17:52:56

––––––––––––––––––––––––––––––––––––––––
Analyzed: Loran Qui / Twenty Twenty Black
––––––––––––––––––––––––––––––––––––––––

DR Peak RMS Duration Track
––––––––––––––––––––––––––––––––––––––––
DR8 -0.23 dB -9.72 dB 4:20 01-Season
DR5 -0.15 dB -7.24 dB 3:56 02-Masspress
DR5 -0.23 dB -6.73 dB 5:13 03-Never Surrender
DR6 -0.24 dB -7.81 dB 4:51 04-Banditism
DR7 -0.10 dB -8.46 dB 4:57 05-Paris
DR7 -0.09 dB -9.22 dB 3:30 06-Cognitive Fall
DR8 -0.24 dB -9.17 dB 3:18 07-Motor Psycho
DR3 -0.26 dB -5.17 dB 3:58 08-Derby
DR6 -0.20 dB -7.59 dB 3:19 09-Plane
DR7 -0.26 dB -9.50 dB 5:46 10-8 Down
––––––––––––––––––––––––––––––––––––––––

Number of tracks: 10
Official DR value: DR6

Samplerate: 44100 Hz
Channels: 2
Bits per sample: 24
Bitrate: 1724 kbps
Codec: FLAC
================================================================================



Thanks to the Original customer.