Louis Lortie - In paradisum: A Fauré Recital, Vol. 2 (2020) [Official Digital Download 24/96]

Posted By: SERTiL
Louis Lortie - In paradisum: A Fauré Recital, Vol. 2 (2020) [Official Digital Download 24/96]

Louis Lortie - In paradisum: A Fauré Recital, Vol. 2 (2020)
FLAC (tracks) 24-bit/96 kHz | Time - 75:43 minutes | 1.18 GB
Studio Master, Official Digital Download | Artwork: Front Cover

The Canadian pianist Louis Lortie returns with the second volume of his overview of the solo piano works of Gabriel Fauré. The two major works in this recital are the Ballade, Op. 19 and the Thème et variations, Op. 73. The earlier Ballade shows Fauré’s debt to Liszt, whilst the Thème et variations was modelled on Schumann’s Études symphoniques. The rest of the programme consists of shorter Nocturnes and Barcarolles, and is book-ended by the Pie Jesu and In paradisum from the Requiem – Fauré’s bestknown work – in transcriptions by Louis Lortie himself.

Tracklist:
01. Requiem, Op. 48 (Excerpts Transcr. L. Lortie for Piano): IV. Pie Jesu (3:51)
02. Barcarolle No. 12 in E-Flat Major, Op. 106bis (3:22)
03. Nocturne No. 11 in F-Sharp Minor, Op. 104 No. 1 (5:03)
04. Ballade, Op. 19 (Version for Piano) (14:42)
05. Nocturne No. 7 in C-Sharp Minor, Op. 74 (8:12)
06. Theme & Variations, Op. 73: Thème. Quasi adagio (1:54)
07. Theme & Variations, Op. 73: Var. 1, Lo stresso tempo (0:56)
08. Theme & Variations, Op. 73: Var. 2, Più mosso (0:45)
09. Theme & Variations, Op. 73: Var. 3, Un poco più mosso (0:39)
10. Theme & Variations, Op. 73: Var. 4, Lo stresso tempo (1:17)
11. Theme & Variations, Op. 73: Var. 5, Un poco più mosso (0:41)
12. Theme & Variations, Op. 73: Var. 6, Molto adagio (1:46)
13. Theme & Variations, Op. 73: Var. 7, Allegretto moderato (0:54)
14. Theme & Variations, Op. 73: Var. 8, Andante molto moderato (1:23)
15. Theme & Variations, Op. 73: Var. 9, Quasi adagio (1:20)
16. Theme & Variations, Op. 73: Var. 10, Allegro vivo (1:03)
17. Theme & Variations, Op. 73: Var. 11, Andante molto moderato espressivo (2:55)
18. Barcarolle No. 1 in A Minor, Op. 26 (4:24)
19. Barcarolle No. 10 in A Minor, Op. 104 No. 2 (3:07)
20. Nocturne No. 10 in E Minor, Op. 99 (5:11)
21. Nocturne No. 13 in B Minor, Op. 119 (8:48)
22. Requiem, Op. 48 (Excerpts Transcr. L. Lortie for Piano): VII. In paradisum (3:41)

foobar2000 1.3.7 / Dynamic Range Meter 1.1.1
log date: 2020-03-24 16:59:18

––––––––––––––––––––––––––––––––––––––––
Analyzed: Louis Lortie / In paradisum: A Fauré Recital, Vol. 2
––––––––––––––––––––––––––––––––––––––––

DR Peak RMS Duration Track
––––––––––––––––––––––––––––––––––––––––
DR15 -8.28 dB -29.65 dB 3:51 01-Requiem, Op. 48 (Excerpts Transcr. L. Lortie for Piano): IV. Pie Jesu
DR12 -8.50 dB -25.84 dB 3:22 02-Barcarolle No. 12 in E-Flat Major, Op. 106bis
DR14 -5.32 dB -26.99 dB 5:03 03-Nocturne No. 11 in F-Sharp Minor, Op. 104 No. 1
DR15 -1.72 dB -23.70 dB 14:42 04-Ballade, Op. 19 (Version for Piano)
DR14 -3.90 dB -23.85 dB 8:12 05-Nocturne No. 7 in C-Sharp Minor, Op. 74
DR12 -1.11 dB -17.96 dB 1:54 06-Theme & Variations, Op. 73: Thème. Quasi adagio
DR10 -15.72 dB -30.70 dB 0:56 07-Theme & Variations, Op. 73: Var. 1, Lo stresso tempo
DR12 -7.28 dB -22.29 dB 0:45 08-Theme & Variations, Op. 73: Var. 2, Più mosso
DR10 -1.69 dB -18.59 dB 0:39 09-Theme & Variations, Op. 73: Var. 3, Un poco più mosso
DR11 -1.84 dB -17.11 dB 1:17 10-Theme & Variations, Op. 73: Var. 4, Lo stresso tempo
DR10 -4.36 dB -19.40 dB 0:41 11-Theme & Variations, Op. 73: Var. 5, Un poco più mosso
DR12 -10.44 dB -27.77 dB 1:46 12-Theme & Variations, Op. 73: Var. 6, Molto adagio
DR10 -5.65 dB -22.15 dB 0:54 13-Theme & Variations, Op. 73: Var. 7, Allegretto moderato
DR12 -12.35 dB -30.28 dB 1:23 14-Theme & Variations, Op. 73: Var. 8, Andante molto moderato
DR12 -6.04 dB -26.75 dB 1:20 15-Theme & Variations, Op. 73: Var. 9, Quasi adagio
DR10 -1.68 dB -17.96 dB 1:03 16-Theme & Variations, Op. 73: Var. 10, Allegro vivo
DR15 -2.71 dB -24.26 dB 2:55 17-Theme & Variations, Op. 73: Var. 11, Andante molto moderato espressivo
DR14 -8.10 dB -27.02 dB 4:24 18-Barcarolle No. 1 in A Minor, Op. 26
DR14 -3.30 dB -23.43 dB 3:07 19-Barcarolle No. 10 in A Minor, Op. 104 No. 2
DR14 -3.31 dB -24.17 dB 5:11 20-Nocturne No. 10 in E Minor, Op. 99
DR14 -3.68 dB -23.59 dB 8:48 21-Nocturne No. 13 in B Minor, Op. 119
DR15 -8.35 dB -30.08 dB 3:41 22-Requiem, Op. 48 (Excerpts Transcr. L. Lortie for Piano): VII. In paradisum
––––––––––––––––––––––––––––––––––––––––

Number of tracks: 22
Official DR value: DR13

Samplerate: 96000 Hz
Channels: 2
Bits per sample: 24
Bitrate: 2088 kbps
Codec: FLAC
================================================================================


Thanks to the Original customer.