Louis Matute Quartet - Telepathy (2018) [Official Digital Download 24/88]

Posted By: Pisulik
Louis Matute Quartet - Telepathy (2018) [Official Digital Download 24/88]

Louis Matute Quartet - Telepathy (2018)
FLAC (tracks) 24-bit/88.2 kHz | Time - 48:23 minutes | 879 MB
Studio Master, Official Digital Download | Artwork: Front cover

Between jazz and contemporary music, the quartet offers the public fresh and diverse music. Formed in 2016 by Louis Matute, Léon Phal, Virgile Rosselet and Noé Franklé, all from different Hautes Ecoles de Musique in Switzerland, the Louis Matute 4tet goes to Lausanne. Over time, the group has bonded a beautiful friendship that is heard over the melodies.

Tracklist:

01. Kuona
02. Pictures
03. Just Take What You Need
04. Day Dreamer
05. L’ Abricotier
06. Telepathy
07. In Your Own Sweet Way

foobar2000 1.3.7 / Dynamic Range Meter 1.1.1
log date: 2018-11-06 00:31:58

––––––––––––––––––––––––––––––––––––––––
Analyzed: Louis Matute Quartet / Telepathy
––––––––––––––––––––––––––––––––––––––––

DR Peak RMS Duration Track
––––––––––––––––––––––––––––––––––––––––
DR12 -0.25 dB -15.12 dB 5:45 01-Kuona
DR11 -0.25 dB -12.40 dB 6:51 02-Pictures
DR10 -0.25 dB -12.15 dB 7:54 03-Just Take What You Need
DR10 -0.25 dB -12.75 dB 9:20 04-Day Dreamer
DR11 -0.25 dB -13.60 dB 6:13 05-L’ Abricotier
DR11 -0.25 dB -13.23 dB 7:41 06-Telepathy
DR11 -0.25 dB -12.77 dB 4:42 07-In Your Own Sweet Way
––––––––––––––––––––––––––––––––––––––––

Number of tracks: 7
Official DR value: DR11

Samplerate: 88200 Hz
Channels: 2
Bits per sample: 24
Bitrate: 2585 kbps
Codec: FLAC
================================================================================


All thanks go to the original releaser