Lukas Nelson & Promise of the Real - A Few Stars Apart (2021) [Official Digital Download 24/96]

Posted By: pyatak
Lukas Nelson & Promise of the Real -  A Few Stars Apart (2021) [Official Digital Download 24/96]

Lukas Nelson & Promise of the Real - A Few Stars Apart (2021) [Official Digital Download 24/96]
FLAC (tracks) 24-bit/96 kHz | Front Cover | Time - 37:12 minutes | 793 MB
Pop, Country | Label: Fantasy, Official Digital Download

A Few Stars Apart, the new album from Lukas Nelson & Promise of the Real, is a testament to finding a human connection: between close family and friends, as well as one’s own heart. These 11 songs reveal what it means to come home again, to be still, and to find community—and yourself.

Riding out the beginning of the pandemic with his parents and his brother, Grammy Award-winning Nelson was forced to hit pause in 2020 for the first time in his life. He and his acclaimed band had toured relentlessly for more than a decade, playing countless sold-out one-night shows and festivals around the world and occasionally serving as Neil Young’s road band. For the longest stretch of time in his life, Nelson was forced to find stillness, connection and inspiration in life’s simplest joys.

TRACKLIST

1. Lukas Nelson & Promise of the Real - We'll Be Alright
2. Lukas Nelson & Promise of the Real - Perennial Bloom (Back To You)
3. Lukas Nelson & Promise of the Real - Throwin’ Away Your Love
4. Lukas Nelson & Promise of the Real - A Few Stars Apart
5. Lukas Nelson & Promise of the Real - No Reason
6. Lukas Nelson & Promise of the Real - Leave ‘em Behind
7. Lukas Nelson & Promise of the Real - Wildest Dreams
8. Lukas Nelson & Promise of the Real - Giving You Away
9. Lukas Nelson & Promise of the Real - Hand Me A Light
10. Lukas Nelson & Promise of the Real - More Than We Can Handle
11. Lukas Nelson & Promise of the Real - Smile

foobar2000 1.6.2 / Dynamic Range Meter 1.1.1
log date: 2021-06-10 13:51:06

––––––––––––––––––––––––––––––––––––––––
Analyzed: Lukas Nelson & Promise of the Real / A Few Stars Apart
––––––––––––––––––––––––––––––––––––––––

DR Peak RMS Duration Track
––––––––––––––––––––––––––––––––––––––––
DR7 -0.21 dB -10.00 dB 5:02 01-We'll Be Alright
DR7 -0.31 dB -7.97 dB 3:17 02-Perennial Bloom (Back To You)
DR7 -0.30 dB -8.69 dB 3:11 03-Throwin’ Away Your Love
DR7 -0.30 dB -9.48 dB 3:09 04-A Few Stars Apart
DR7 -0.20 dB -8.90 dB 2:43 05-No Reason
DR7 -0.31 dB -9.09 dB 3:26 06-Leave ‘em Behind
DR7 -0.31 dB -8.34 dB 2:50 07-Wildest Dreams
DR7 -0.30 dB -9.36 dB 3:37 08-Giving You Away
DR8 -0.30 dB -10.43 dB 3:36 09-Hand Me A Light
DR8 -0.31 dB -10.36 dB 2:49 10-More Than We Can Handle
DR10 -0.31 dB -13.33 dB 3:40 11-Smile
––––––––––––––––––––––––––––––––––––––––

Number of tracks: 11
Official DR value: DR7

Samplerate: 96000 Hz
Channels: 2
Bits per sample: 24
Bitrate: 2376 kbps
Codec: FLAC
================================================================================



Thanks to the Original customer.