Marc Anthony - OPUS (2019) [Official Digital Download]

Posted By: pyatak
Marc Anthony - OPUS (2019) [Official Digital Download]

Marc Anthony - OPUS (2019) [Official Digital Download]
FLAC (tracks) 24-bit/44.1 kHz | Front Cover | Time - 47:09 minutes | 557 MB
Pop | Label: Sony U.S. Latin, Official Digital Download

Latin superstar Marc Anthony took to social media on Tuesday, 30 April 2019 to announce the release of his upcoming album Opus, also revealing the album’s cover art.

The highly anticipated album is scheduled for release on Friday, 10 May 2019, and was teased in a series of images posted on the singer’s Instagram account, up until the official reveal. In the announcement post shared on Tuesday, 30 April 2019 the singer stated, “I have some big news to share with you today! My new album, #Opus, comes out on May 10th and starting today you can pre-save it on your favourite digital platform. It was an amazing experience recording this album and I can’t wait for you to finally listen to it.”

Along with his caption, Anthony shared the sultry cover art for the album. The singer is seen against a grey wall in the image, giving a seductive look to the camera whilst holding on to his necklaces. The album serves as his first studio album in six years, and his eighth salsa album, following Otra Nota which was released in 1993. According to Anthony’s official website, the title Opus was chosen earlier on in the production process as it emphasized its role as a solid masterwork within his massive, much-praised discography.

TRACKLIST

1 Parecen Viernes
2 Tu Vida en la Mía
3 Un Amor Eterno
4 Si Me Creyeras
5 Soy Yo
6 Lo Que Te Di
7 Úsame
8 Si Pudiera
9 Lo Peor de Mí
10 Reconozco

foobar2000 1.3.16 / Dynamic Range Meter 1.1.1
log date: 2019-05-16 03:40:45

––––––––––––––––––––––––––––––––––––––––
Analyzed: Marc Anthony / OPUS
––––––––––––––––––––––––––––––––––––––––

DR Peak RMS Duration Track
––––––––––––––––––––––––––––––––––––––––
DR6 -1.00 dB -8.42 dB 4:28 01-Parecen Viernes
DR6 -1.00 dB -8.12 dB 6:14 02-Tu Vida en la Mía
DR6 -1.01 dB -8.35 dB 4:19 03-Un Amor Eterno
DR7 -1.04 dB -9.50 dB 4:30 04-Si Me Creyeras
DR6 -1.00 dB -8.73 dB 4:51 05-Soy Yo
DR6 -1.00 dB -8.79 dB 4:03 06-Lo Que Te Di
DR7 -1.01 dB -8.92 dB 5:00 07-Úsame
DR7 -1.01 dB -9.06 dB 4:26 08-Si Pudiera
DR6 -1.00 dB -8.97 dB 5:11 09-Lo Peor de Mí
DR7 -1.00 dB -9.36 dB 4:08 10-Reconozco
––––––––––––––––––––––––––––––––––––––––

Number of tracks: 10
Official DR value: DR6

Samplerate: 44100 Hz
Channels: 2
Bits per sample: 24
Bitrate: 1564 kbps
Codec: FLAC
================================================================================



Thanks to the Original customer.