Tags
Language
Tags
December 2022
Su Mo Tu We Th Fr Sa
27 28 29 30 1 2 3
4 5 6 7 8 9 10
11 12 13 14 15 16 17
18 19 20 21 22 23 24
25 26 27 28 29 30 31

Mareike Wiening featuring Rich Perry, Glenn Zaleski, Alex Goodman and Johannes Felscher - Future Memories (2021) [24/96]

Posted By: pyatak
Mareike Wiening featuring Rich Perry, Glenn Zaleski, Alex Goodman and Johannes Felscher - Future Memories (2021) [24/96]

Mareike Wiening featuring Rich Perry, Glenn Zaleski, Alex Goodman and Johannes Felscher - Future Memories (2021) [24/96]
FLAC (tracks) 24-bit/96 kHz | Front Cover | Time - 53:08 minutes | 1,02 GB
Jazz | Label: Greenleaf Music, Official Digital Download

"Future Memories" is the new album from New York-based German drummer and composer Mareike Wiening, featuring her longstanding band that includes saxophonist Rich Perry, pianist Glenn Zaleski, guitarist Alex Goodman, and bassist Johannes Felscher. Recorded in one day in the midst of an extensive tour, the album captures the live group energy and cohesion that only comes from playing together regularly.

Featuring eight of Wiening’s originals inspired by her band members, the compositions are emotional, rhythmical and most importantly, always lyrical. The music was captured in January 2020, just before the first pandemic lockdown, and the album’s title encapsulates Mareike’s feelings: the unexpected value of our future interweaves with various levels of past experiences, memories and the unknown. Balancing great compositions with soaring solo explorations, this is exciting, thoughtful, and engaging creative jazz.

"But the name "Future Memories" has another, philosophical layer. The eight pieces of Wiening's quintet were written before the Covid crisis, much like the studio sessions. For that reason, the album provides an idea of what improvised music and jazz are capable of: namely, establishing an imaginary point in time in the future from which the present can be reflected upon as something already past. "My band is scattered all over the world, we live in different time zones and are separate from each other," Wiening says. "But our cohesion in the past, what we have experienced together, and our music will get us through the difficult present. We will stay positive." That seems more necessary than ever in turbulent times like these."

TRACKLIST

01. Mareike Wiening - Northern Sail
02. Mareike Wiening - El Escorial
03. Mareike Wiening - An Idea Is Unpredictable
04. Mareike Wiening - RiChanges
05. Mareike Wiening - Future Memories
06. Mareike Wiening - The Other Soul
07. Mareike Wiening - Seesaw March
08. Mareike Wiening - Dance Into July

foobar2000 1.6.2 / Dynamic Range Meter 1.1.1
log date: 2021-11-14 16:40:05

––––––––––––––––––––––––––––––––––––––––
Analyzed: Mareike Wiening / Future Memories
––––––––––––––––––––––––––––––––––––––––

DR Peak RMS Duration Track
––––––––––––––––––––––––––––––––––––––––
DR9 -0.60 dB -11.70 dB 5:37 01-Northern Sail
DR10 -0.56 dB -11.70 dB 7:34 02-El Escorial
DR9 -0.40 dB -11.76 dB 7:30 03-An Idea Is Unpredictable
DR9 -0.31 dB -11.19 dB 7:47 04-RiChanges
DR11 -0.36 dB -13.27 dB 6:04 05-Future Memories
DR10 -0.24 dB -11.62 dB 7:06 06-The Other Soul
DR9 -0.37 dB -11.32 dB 5:49 07-Seesaw March
DR9 -0.56 dB -11.45 dB 5:41 08-Dance Into July
––––––––––––––––––––––––––––––––––––––––

Number of tracks: 8
Official DR value: DR9

Samplerate: 96000 Hz
Channels: 2
Bits per sample: 24
Bitrate: 2762 kbps
Codec: FLAC
================================================================================



Thanks to the Original customer.