Margo Price - Midwest Farmer's Daughter (2016) [TR24][OF]

Posted By: SERTiL
Margo Price - Midwest Farmer's Daughter (2016) [TR24][OF]

Margo Price - Midwest Farmer's Daughter
Country | FLAC (tracks) 24-bit/44.1 kHz | 39:58 min | 478 MB | Front Cover
Label: Third Man Records | Tracks: 10 | Rls.date: 2016

Midwest Farmer's Daughter isn't merely an autobiographical title for the retro country singer/songwriter Margo Price, it's a nice tip of the hat to one of her primary inspirations, Loretta Lynn. The connections between the two country singers don't end there. Toward the end of her career, the Coal Miner's Daughter wound up collaborating with Jack White for 2004's Van Lear Rose, and White's Third Man Records provides a launching pad for Price, releasing her self-financed solo debut as-is as Midwest Farmer's Daughter. Spare and lean like Loretta in her prime, Price nevertheless writes with the studied precision of a modern Americana songwriter; even when she gets explicitly autobiographical, as she does on the opening "Hands of Time," it doesn't play as confession ripped from the soul, it plays as poetry. Similarly, when she tightens the screws so her song turns into something sleek, it doesn't play as Music City precision, it feels savvy and personal, surprising with its light hint of funk and Price's clear, plaintive, and powerful vocal. This tension between the head and heart, between the country and the city, is what fuels Midwest Farmer's Daughter, placing it on a warm, hazy plane that feels simultaneously sophisticated and down-home. Part of this dichotomy is due to Price's singing: she sounds like the Illinois girl that she is, possessing a voice that's pretty, plain, and unadorned, carrying an innocence that cuts against the worldliness of her songs. Her band, though, provides her songs with a genuine honky tonk kick, but even when the album drifts toward the traditional — as it does on "Hurtin' (On the Bottle)" or "Four Years of Chances" — Price's sensibility is modern, turning these old-fashioned tales of heartbreak, love, loss, and perseverance into something fresh and affecting.

TRACKLIST
1. Hands of Time 06:09
2. About to Find Out 03:13
3. Tennessee Song 04:40
4. Since You Put Me Down 04:53
5. Four Years of Chances 04:33
6. This Town Gets Around 02:56
7. How the Mighty Have Fallen 03:11
8. Weekender 04:41
9. Hurtin' (On the Bottle) 04:13
10. World's Greatest Loser 01:33

foobar2000 1.3.7 / Замер динамического диапазона (DR) 1.1.1
Дата отчёта: 2017-01-05 21:20:59

––––––––––––––––––––––––––––––––––––––––
Анализ: Margo Price / Midwest Farmer's Daughter
––––––––––––––––––––––––––––––––––––––––

DR Пики RMS Продолжительность трека
––––––––––––––––––––––––––––––––––––––––
DR9 -0.84 дБ -12.33 дБ 6:09 1-Hands of Time
DR9 -0.83 дБ -11.10 дБ 3:13 2-About to Find Out
DR8 -0.83 дБ -11.00 дБ 4:40 3-Tennessee Song
DR9 -0.83 дБ -11.46 дБ 4:53 4-Since You Put Me Down
DR8 -0.84 дБ -10.43 дБ 2:56 5-Four Years of Chances
DR8 -0.83 дБ -10.43 дБ 4:33 6-This Town Gets Around
DR9 -0.84 дБ -11.05 дБ 3:11 7-How the Mighty Have Fallen
DR8 -0.84 дБ -10.64 дБ 4:41 8-Weekender
DR8 -0.84 дБ -10.93 дБ 4:13 9-Hurtin' (On the Bottle)
DR12 -0.85 дБ -16.33 дБ 1:33 10-World's Greatest Loser
––––––––––––––––––––––––––––––––––––––––

Количество треков: 10
Реальные значения DR: DR9

Частота: 44100 Гц
Каналов: 2
Разрядность: 24
Битрейт: 1483 кбит/с
Кодек: FLAC
================================================================================


Thanks to the Original customer.
My Blog mp3, flac & HDtracks