Tags
Language
Tags

Marina Kaye - Explicit (2017) [Official Digital Download]

Posted By: Pisulik
Marina Kaye - Explicit (2017) [Official Digital Download]

Marina Kaye - Explicit (2017)
FLAC (tracks) 24-bit/44.1 kHz | Time - 48:58 minutes | 549 MB
Studio Master, Official Digital Download | Artwork: Front cover

In line with the current great singers, Marina Kaye turns pop into a highly energetic hybrid. She also gave a more urban, more rhythmic form to her songs, interpreted until then in the most international of languages, English. But this time, and it's a first, Marina sings in French, with the elegance that is needed. A first album must be beautiful, says Marina Kaye, the second, daring. This one has a style, a paw. I sought to accompany my audience while following what I deeply wanted to do. Created in Los Angeles, in London, then in Paris.

At the age of 19, Marina Kaye has already had the success, the happiness and the difficulties attached to it. Winner at the age of 13 of the television show "La France has an incredible talent", she published in 2015 Fearless, sold more than 300 000 copies, dubbed by a platinum single Homeless, that she, Marina Dalmas, has written with Nina Woodford and Mathias Wollo. At the end of 2016, Soprano, to whom the strength of the voice of Marina Kaye recalls that of the Australian singer Sia, invites him for a duet. My Everest, militant and moving, is recorded in the American, the clip is filmed in Chicago. It's a hit and his collaboration with the rapper from Marseille marks a turn in the young career of the singer.

Tracklist:

01. Intro
02. Armour
03. On My Own
04. Vivre [feat. Soprano]
05. Merci quand même
06. Little Girl
07. Something
08. Miracle
09. Save Yourself
10. My Escape
11. This Time Is Mine
12. Vole
13. Close
14. On My Own (Acoustic)

foobar2000 1.3.7 / Dynamic Range Meter 1.1.1
log date: 2017-11-06 02:40:04

––––––––––––––––––––––––––––––––––––––––
Analyzed: Marina Kaye / Explicit
––––––––––––––––––––––––––––––––––––––––

DR Peak RMS Duration Track
––––––––––––––––––––––––––––––––––––––––
DR7 -0.61 dB -10.41 dB 2:05 01-Intro
DR6 -0.17 dB -9.30 dB 3:30 02-Armour
DR6 -0.22 dB -9.22 dB 3:34 03-On My Own
DR5 0.00 dB -8.46 dB 3:21 04-Vivre (feat. Soprano)
DR6 0.00 dB -8.67 dB 3:54 05-Merci Quand Même
DR6 -0.11 dB -8.52 dB 3:27 06-Little Girl
DR8 -0.38 dB -11.24 dB 3:17 07-Something
DR6 0.00 dB -8.36 dB 3:47 08-Miracle
DR6 -0.04 dB -9.04 dB 3:33 09-Save Yourself
DR6 -0.08 dB -8.68 dB 3:47 10-My Escape
DR6 -0.17 dB -9.08 dB 3:34 11-This Time Is Mine
DR8 -0.25 dB -12.45 dB 3:24 12-Vole
DR7 -0.11 dB -9.91 dB 4:17 13-Close
DR8 -0.44 dB -11.79 dB 3:35 14-On My Own (Acoustic)
––––––––––––––––––––––––––––––––––––––––

Number of tracks: 14
Official DR value: DR7

Samplerate: 44100 Hz
Channels: 2
Bits per sample: 24
Bitrate: 1464 kbps
Codec: FLAC
================================================================================


All thanks go to the original releaser