Tags
Language
Tags

Mario Biondi - Romantic (2022)

Posted By: v3122
Mario Biondi - Romantic (2022)

Mario Biondi - Romantic (2022)
FLAC (Tracks) 24-bit/44.1 kHz | Official Digital Download | Time: 58:35
Vocal Jazz, Soul, R&B, Funk | ~ 682 Mb

Born in Catania, Italy, the son of a popular song singer, during his youth sang in various small choirs. Years after he accompanied Franco Califano, Peppino Di Capri, Fred Bongusto, Rosario Fiorello and others on their Concert tours. After a long series of participations with Italian and international artists, and a small production of disco music, during 2006 he achieved success with the Schema Records album Handful of Soul. His deep and warm voice recalls the great interpreters of soul and rhythm and blues music. In 2007, he released a double disc containing live material, entitled I Love You More LIVE. In 2010 he released a live album Yes You (Live) and followed that in 2011 with a double CD album Due. In 2013, Biondi released a new album SUN and Mario Christmas. On 5 May 2015 Mario has published a brand new record: Beyond, featuring songs such as "Love is a temple"…

~ wiki
Mario Biondi - Romantic (2022):

Tracklist:

01. The Creator Has a Master Plan 4:38
02. Romantic Song 2:42
03. Fino all'ultimo respiro 4:15
04. If I Love You 3:23
05. Going out of My Head 2:59
06. Loneliness 3:24
07. Prisoner 2:33
08. What's Your Name 3:51
09. What's Going On 6:17
10. You'll Never Find Another Love Like Mine 4:21
11. Tu Malatia 4:54
12. Papa Loves Mambo 2:45
13. Would You Believe in Me 3:31
14. Ricuordate (feat. Lina Sastri) 3:30
15. Take It as It Comes (Prendila Così) 5:32

foobar2000 1.6.6 / Dynamic Range Meter 1.1.1
log date: 2022-04-25 18:46:55

––––––––––––––––––––––––––––––––––––––––
Analyzed: Mario Biondi / Romantic
––––––––––––––––––––––––––––––––––––––––

DR Peak RMS Duration Track
––––––––––––––––––––––––––––––––––––––––
DR8 -1.16 dB -10.21 dB 4:38 01-The Creator Has a Master Plan
DR6 -1.29 dB -8.96 dB 2:42 02-Romantic Song
DR8 -1.16 dB -11.31 dB 4:15 03-Fino all'ultimo respiro
DR8 -1.10 dB -10.97 dB 3:23 04-If I Love You
DR7 -1.11 dB -11.22 dB 2:59 05-Going out of My Head
DR6 -1.14 dB -9.07 dB 3:24 06-Loneliness
DR5 -1.24 dB -6.98 dB 2:33 07-Prisoner
DR5 -1.37 dB -8.10 dB 3:51 08-What's Your Name
DR5 -1.20 dB -7.76 dB 6:17 09-What's Going On
DR6 -1.15 dB -8.45 dB 4:21 10-You'll Never Find Another Love Like Mine
DR6 -1.09 dB -8.65 dB 4:54 11-Tu Malatia
DR6 -1.16 dB -8.78 dB 2:45 12-Papa Loves Mambo
DR5 -1.19 dB -7.75 dB 3:31 13-Would You Believe in Me
DR6 -1.15 dB -8.87 dB 3:30 14-Ricuordate (feat. Lina Sastri)
DR6 -1.18 dB -9.32 dB 5:32 15-Take It as It Comes (Prendila Così)
––––––––––––––––––––––––––––––––––––––––

Number of tracks: 15
Official DR value: DR6

Samplerate: 44100 Hz
Channels: 2
Bits per sample: 24
Bitrate: 1573 kbps
Codec: FLAC

All thanks go to the original releaser

Download Mario Biondi - Romantic (2022):