Mariss Jansons - Strawinsky & Mussorgsky (2015) [TR24][OF]

Posted By: SERTiL
Mariss Jansons - Strawinsky & Mussorgsky (2015) [TR24][OF]

Mariss Jansons - Strawinsky & Mussorgsky
Classical | FLAC (tracks) 24-bit/48 kHz | 69:37 min | 676 MB | Front Cover
Label: BR Klassik | Tracks: 30 | Rls.date: 2015

Two well-known masterpieces of Russian music complement each other perfectly on the latest CD of Mariss Jansons and the Symphonieorchester des Bayerischen Rundfunks. Firstly, Stravinsky's ballet music "Petrushka" in its 1947 version which, with its smaller orchestra and more prominent piano part (played by Lukas Maria Kuen), is more of an instrumental work, or "a kind of concert piece"; and secondly, Mussorgsky's "Pictures at an Exhibition." Originally written in 1874 as a piano cycle, it can be heard here in the colourful, universal and engaging orchestral version of 1922 by Maurice Ravel, which made it world-famous.

The recordings were made in November 2014 (Mussorgsky) and April 2015 (Stravinsky) at concerts in the Herkulessaal of the Munich Residenz and in the Philharmonie im Gasteig.

TRACKLIST

Igor Stravinsky: Petrushka, Tableau I
01 - Tableau I: The Shrovetide Fair
02 - Tableau I: Russian Dance

Petrushka, Tableau II
03 - Tableau II: Petrushka's Room

Petrushka, Tableau III
04 - Tableau III: The Moor's Room
05 - Tableau III: Waltz

Petrushka, Tableau IV
06 - Tableau IV: The Shrove-Tide Fair and the Death of Petrushka
07 - Tableau IV: Wet Nurses' Dance
08 - Tableau IV: Peasant and Bear
09 - Tableau IV: Dance of the Gipsy Girls
10 - Tableau IV: Dance of the Coachmen and Ostlers
11 - Tableau IV: The Masqueraders
12 - Tableau IV: The Scuffle (Blackamoor and Petrushka)
13 - Tableau IV: Death of Petrushka
14 - Tableau IV: Police and the Juggler
15 - Tableau IV: Apparition of Petrushka's Double

Modest Petrovich Mussorgsky: Pictures at an Exhibition (Orch. M. Ravel)
16 - Promenade I
17 - I. The Gnome
18 - Promenade II
19 - II. The Old Castle
20 - Promenade III
21 - III. Tuileries
22 - IV. Bydlo
23 - Promenade IV
24 - V. Ballet of the Unhatched Chicks
25 - VI. Samuel Goldenberg and Schmuyle
26 - VII. The Market Place at Limoges
27 - VIIIa. Catacombae. Sepulchrum romanum
28 - VIIIb. Con mortuis in lingua mortua
29 - IX. The Hut on Fowl's Legs (Baba-Yaga)
30 - X. The Great Gate of Kiev

foobar2000 1.3.7 / Замер динамического диапазона (DR) 1.1.1
Дата отчёта: 2017-01-11 18:59:29

––––––––––––––––––––––––––––––––––––––––
Анализ: Symphonieorchester Des Bayerischen Rundfunks, Orchestra - Mariss Jansons, Conductor - Igor Stravinsky, Composer / Mariss Jansons : Stravinsky: Petrushka - Mussorgsky: Pictures at an Exhibition (1-15)
Symphonieorchester Des Bayerischen Rundfunks, Orchestra - Mariss Jansons, Conductor - Modest Petrovich Mussorgsky, Composer - Maurice Ravel, Composer / Mariss Jansons : Stravinsky: Petrushka - Mussorgsky: Pictures at an Exhibition (16-30)
––––––––––––––––––––––––––––––––––––––––

DR Пики RMS Продолжительность трека
––––––––––––––––––––––––––––––––––––––––
DR14 -2.41 дБ -21.16 дБ 7:18 1-Petrushka, Tableau I:Petrushka, Tableau I: Tableau I: The Shrovetide Fair
DR13 -2.39 дБ -21.01 дБ 2:50 2-Petrushka, Tableau I:Petrushka, Tableau I: Tableau I: Russian Dance
DR14 -1.85 дБ -23.10 дБ 4:39 3-Petrushka, Tableau II:Petrushka, Tableau II: Tableau II: Petrushka's Room
DR17 -2.40 дБ -25.78 дБ 3:42 4-Petrushka, Tableau III:Petrushka, Tableau III: Tableau III: The Moor's Room
DR15 -2.38 дБ -23.73 дБ 3:23 5-Petrushka, Tableau III:Petrushka, Tableau III: Tableau III: Waltz
DR11 -5.09 дБ -20.85 дБ 1:11 6-Petrushka, Tableau IV:Petrushka, Tableau IV: Tableau IV: The Shrove-Tide Fair and the Death of Petrushka
DR11 -4.13 дБ -21.49 дБ 2:32 7-Petrushka, Tableau IV:Petrushka, Tableau IV: Tableau IV: Wet Nurses' Dance
DR10 -6.09 дБ -21.31 дБ 1:33 8-Petrushka, Tableau IV:Petrushka, Tableau IV: Tableau IV: Peasant and Bear
DR15 -3.84 дБ -21.86 дБ 1:14 9-Petrushka, Tableau IV:Petrushka, Tableau IV: Tableau IV: Dance of the Gipsy Girls
DR11 -2.40 дБ -17.44 дБ 2:07 10-Petrushka, Tableau IV:Petrushka, Tableau IV: Tableau IV: Dance of the Coachmen and Ostlers
DR13 -1.76 дБ -19.61 дБ 1:41 11-Petrushka, Tableau IV:Petrushka, Tableau IV: Tableau IV: The Masqueraders
DR12 -7.95 дБ -27.48 дБ 0:52 12-Petrushka, Tableau IV:Petrushka, Tableau IV: Tableau IV: The Scuffle (Blackamoor and Petrushka)
DR10 -25.83 дБ -42.45 дБ 0:49 13-Petrushka, Tableau IV:Petrushka, Tableau IV: Tableau IV: Death of Petrushka
DR14 -13.02 дБ -34.72 дБ 1:11 14-Petrushka, Tableau IV:Petrushka, Tableau IV: Tableau IV: Police and the Juggler
DR11 -11.01 дБ -29.44 дБ 1:28 15-Petrushka, Tableau IV:Petrushka, Tableau IV: Tableau IV: Apparition of Petrushka's Double
DR12 -5.77 дБ -22.40 дБ 1:43 16-Pictures at an Exhibition (Orch. M. Ravel):Pictures at an Exhibition (Orch. M. Ravel): Promenade I
DR18 -1.06 дБ -23.92 дБ 2:58 17-Pictures at an Exhibition (Orch. M. Ravel):Pictures at an Exhibition (Orch. M. Ravel): I. The Gnome
DR9 -20.80 дБ -36.87 дБ 0:56 18-Pictures at an Exhibition (Orch. M. Ravel):Pictures at an Exhibition (Orch. M. Ravel): Promenade II
DR13 -13.33 дБ -32.30 дБ 4:33 19-Pictures at an Exhibition (Orch. M. Ravel):Pictures at an Exhibition (Orch. M. Ravel): II. The Old Castle
DR9 -8.74 дБ -24.18 дБ 0:32 20-Pictures at an Exhibition (Orch. M. Ravel):Pictures at an Exhibition (Orch. M. Ravel): Promenade III
DR13 -9.64 дБ -30.15 дБ 1:02 21-Pictures at an Exhibition (Orch. M. Ravel):Pictures at an Exhibition (Orch. M. Ravel): III. Tuileries
DR13 -1.05 дБ -20.76 дБ 3:01 22-Pictures at an Exhibition (Orch. M. Ravel):Pictures at an Exhibition (Orch. M. Ravel): IV. Bydlo
DR10 -9.45 дБ -26.09 дБ 0:42 23-Pictures at an Exhibition (Orch. M. Ravel):Pictures at an Exhibition (Orch. M. Ravel): Promenade IV
DR13 -12.36 дБ -31.44 дБ 1:19 24-Pictures at an Exhibition (Orch. M. Ravel):Pictures at an Exhibition (Orch. M. Ravel): V. Ballet of the Unhatched Chicks
DR16 -1.39 дБ -24.09 дБ 2:25 25-Pictures at an Exhibition (Orch. M. Ravel):Pictures at an Exhibition (Orch. M. Ravel): VI. Samuel Goldenberg and Schmuyle
DR13 -6.37 дБ -23.48 дБ 1:29 26-Pictures at an Exhibition (Orch. M. Ravel):Pictures at an Exhibition (Orch. M. Ravel): VII. The Market Place at Limoges
DR13 -1.33 дБ -20.80 дБ 2:09 27-Pictures at an Exhibition (Orch. M. Ravel):Pictures at an Exhibition (Orch. M. Ravel): VIIIa. Catacombae. Sepulchrum romanum
DR11 -22.84 дБ -38.49 дБ 1:57 28-Pictures at an Exhibition (Orch. M. Ravel):Pictures at an Exhibition (Orch. M. Ravel): VIIIb. Con mortuis in lingua mortua
DR14 -1.15 дБ -20.11 дБ 3:29 29-Pictures at an Exhibition (Orch. M. Ravel):Pictures at an Exhibition (Orch. M. Ravel): IX. The Hut on Fowl's Legs (Baba-Yaga)
DR12 -1.05 дБ -17.11 дБ 5:12 30-Pictures at an Exhibition (Orch. M. Ravel):Pictures at an Exhibition (Orch. M. Ravel): X. The Great Gate of Kiev
––––––––––––––––––––––––––––––––––––––––

Количество треков: 30
Реальные значения DR: DR13

Частота: 48000 Гц
Каналов: 2
Разрядность: 24
Битрейт: 1462 кбит/с
Кодек: FLAC
================================================================================


Thanks to the Original customer.