Martha Argerich - Debut Recital (1995) [Official Digital Download 24/96]

Posted By: El Misha
Martha Argerich - Debut Recital (1995) [Official Digital Download 24/96]

Martha Argerich - Debut Recital (1995)
FLAC (tracks) 24-bit/96.0 kHz | Time - 01:11:02 | 1.29 GB
Studio Master, Official Digital Download | Artwork: Front cover

Here, on this richly filled CD, is a positive cornucopia of musical genius. Martha Argerich's 1961 disc remains among the most spectacular of all recorded debuts, an impression reinforced by an outsize addition and encore: her 1972 Liszt Sonata. True, there are occasional reminders of her pianism at its most fraught and capricious (Chopin's Barcarolle) as well as tiny scatterings or inaccuracies, yet her playing always blazes with a unique incandescence and character.



Tracklist:

01. F. Chopin - Scherzo No. 3 in C sharp minor Op. 39: Presto con fuoco (1960) [0:06:31.38]
02. J. Brahms - Rhapsodies Op. 79: No 1. Agitato in B minor (1960) [0:08:28.37]
03. J. Brahms - Rhapsodies Op. 79: No 2. Molto passionato, ma non troppo allegro in G minor (1960) [0:06:31.38]
04. S. Prokofiev - Toccata Op. 11 (1960) [0:04:09.00]
05. M. Ravel - Jeux d'eau: Très doux (1960) [0:05:27.00]
06. F. Chopin - Barcarole in F sharp major Op. 60 (1960) [0:08:06.37]
07. F. Liszt - Hungarian Rhapsody No. 6: Tempo giusto - Presto - Andante - Allegro - Presto (1960) [0:06:23.00]
08. F. Liszt - Sonata for Piano in B minor: Lento assai - Allegro energico - (1971) [0:03:01.70]
09. F. Liszt - Sonata for Piano in B minor: Grandioso - (1971) [0:01:58.58]
10. F. Liszt - Sonata for Piano in B minor: Cantando espressivo - (1971) [0:03:40.15]
11. F. Liszt - Sonata for Piano in B minor: Pesante - Recitativo - (1971) [0:02:05.20]
12. F. Liszt - Sonata for Piano in B minor: Andante sostenuto - (1971) [0:00:46.35]
13. F. Liszt - Sonata for Piano in B minor: Quasi Adagio - (1971) [0:04:49.00]
14. F. Liszt - Sonata for Piano in B minor: Allegro energico - (1971) [0:02:13.35]
15. F. Liszt - Sonata for Piano in B minor: Più mosso - (1971) [0:01:52.35]
16. F. Liszt - Sonata for Piano in B minor: Cantando espressivo senza slentare - (1971) [0:01:14.25]
17. F. Liszt - Sonata for Piano in B minor: Stretta quasi Presto - Presto - Prestissimo (1971) [0:01:13.02]
18. F. Liszt - Sonata for Piano in B minor: Andante sostenuto - Allegro moderato - Lento assai (1971) [0:02:54.05]

Performers:
Martha Argerich, piano

foobar2000 1.4 / Dynamic Range Meter 1.1.1
log date: 2021-06-09 10:08:40

––––––––––––––––––––––––––––––––––––––––
Analyzed: Martha Argerich / Martha Argerich - Debut Recital
––––––––––––––––––––––––––––––––––––––––

DR Peak RMS Duration Track
––––––––––––––––––––––––––––––––––––––––
DR10 -4.94 dB -19.95 dB 6:30 01-Chopin: Scherzo No. 3 in C-Sharp Minor, Op. 39
DR10 -4.90 dB -20.73 dB 8:30 02-Brahms: Rhapsody In B Minor, Op.79, No.1
DR11 -5.80 dB -21.84 dB 6:32 03-Brahms: Rhapsody In G Minor, Op.79, No.2
DR9 -5.60 dB -19.06 dB 4:08 04-Prokofiev: Toccata, Op.11
DR13 -6.66 dB -25.86 dB 5:27 05-Ravel: Jeux d'eau, M.30
DR11 -5.30 dB -22.41 dB 8:06 06-Chopin: Barcarolle, Op. 60
DR10 -4.96 dB -19.61 dB 6:23 07-Liszt: Hungarian Rhapsody No.6 in D-Flat Major, S. 244
DR11 -4.71 dB -19.06 dB 3:01 08-Lento assai - Allegro energico
DR10 -5.74 dB -22.33 dB 1:59 09-Grandioso
DR11 -4.42 dB -19.78 dB 3:41 10-Cantando espressivo
DR11 -5.19 dB -22.69 dB 2:05 11-Pesante - Recitativo
DR8 -11.12 dB -33.71 dB 0:47 12-Andante sostenuto
DR11 -3.97 dB -21.67 dB 4:49 13-Quasi Adagio
DR10 -4.72 dB -19.28 dB 2:14 14-Allegro energico
DR10 -5.11 dB -19.30 dB 1:52 15-Più mosso
DR10 -7.39 dB -26.73 dB 1:14 16-Cantando espressivo senza slentare
DR10 -4.42 dB -16.64 dB 1:13 17-Stretta quasi Presto - Presto - Prestissimo
DR14 -15.44 dB -37.17 dB 2:59 18-Andante sostenuto - Allegro moderato - Lento assai
––––––––––––––––––––––––––––––––––––––––

Number of tracks: 18
Official DR value: DR11

Samplerate: 96000 Hz
Channels: 2
Bits per sample: 24
Bitrate: 2453 kbps
Codec: FLAC
================================================================================



Thanks to the Original customer!