Martin Rude & Jakob Skøtt Duo - The Dichotomy of Control (2020) [Official Digital Download]

Posted By: pyatak
Martin Rude & Jakob Skøtt Duo - The Dichotomy of Control (2020) [Official Digital Download]

Martin Rude & Jakob Skøtt Duo - The Dichotomy of Control (2020) [Official Digital Download]
FLAC (tracks) 24-bit/44.1 kHz | Front Cover | Time - 43:16 minutes | 487 MB
Progressive Rock | Label: El Paraiso, Official Digital Download

The collaboration between Danish musicians Martin Rude and Jakob Skøtt has proven to be most fruitful. The mixture of Rude’s open guitar tunings and double bass with Skøtt’s fluid drumming and ethereal synths and electronics gave their debut LP The Discipline of Assent an epic, galactic jazz western feel. A soundtrack to some retro-futuristic Leone film that only exists in the strangest of fever dreams. It truly was one of the more exciting musical trips I’d taken this year.

Fortunately for us the collaboration didn’t stop at one full-length. The duo recorded enough material for two LPs, the second of which is here now. The Dichotomy Of Control is an exquisite shot of mysterious acoustic jangle and spaced-out synth sonics. With this new set of forward-thinking tracks there’s a much more free-flowing jazz feel. It’s as if Gateway locked into Arabic folk music and then injected some Sun Ra magic in for good measure. The resulting LP is a groovefest for deep space travel and desert vision quests.

TRACKLIST

01. Martin Rude & Jakob Skøtt Duo - Ode to Sadiq
02. Martin Rude & Jakob Skøtt Duo - Memory Tree
03. Martin Rude & Jakob Skøtt Duo - Quem Näo Arrisca
04. Martin Rude & Jakob Skøtt Duo - Shadowland
05. Martin Rude & Jakob Skøtt Duo - The Veil
06. Martin Rude & Jakob Skøtt Duo - Epictetus Wash
07. Martin Rude & Jakob Skøtt Duo - The Rest of the Way
08. Martin Rude & Jakob Skøtt Duo - Une Découverte Retentissante
09. Martin Rude & Jakob Skøtt Duo - Canyon Collage

foobar2000 1.6.2 / Dynamic Range Meter 1.1.1
log date: 2020-12-05 15:46:04

––––––––––––––––––––––––––––––––––––––––
Analyzed: Martin Rude & Jakob Skøtt Duo / The Dichotomy of Control
––––––––––––––––––––––––––––––––––––––––

DR Peak RMS Duration Track
––––––––––––––––––––––––––––––––––––––––
DR8 -0.34 dB -9.62 dB 4:21 01-Ode to Sadiq
DR9 -0.46 dB -10.39 dB 3:45 02-Memory Tree
DR7 -0.45 dB -9.64 dB 2:30 03-Quem Näo Arrisca
DR9 -0.26 dB -11.63 dB 3:53 04-Shadowland
DR8 -0.33 dB -9.75 dB 4:42 05-The Veil
DR8 -0.14 dB -10.85 dB 2:43 06-Epictetus Wash
DR9 -0.38 dB -10.50 dB 5:32 07-The Rest of the Way
DR9 -0.32 dB -10.55 dB 4:56 08-Une Découverte Retentissante
DR8 -0.12 dB -10.29 dB 10:55 09-Canyon Collage
––––––––––––––––––––––––––––––––––––––––

Number of tracks: 9
Official DR value: DR8

Samplerate: 44100 Hz
Channels: 2
Bits per sample: 24
Bitrate: 1536 kbps
Codec: FLAC
================================================================================



Thanks to the Original customer.