Martin Rude & Jakob Skøtt Duo - The Discipline of Assent (2020) [Official Digital Download]

Posted By: pyatak
Martin Rude & Jakob Skøtt Duo - The Discipline of Assent (2020) [Official Digital Download]

Martin Rude & Jakob Skøtt Duo - The Discipline of Assent (2020) [Official Digital Download]
FLAC (tracks) 24-bit/44.1 kHz | Front Cover | Time - 37:07 minutes | 406 MB
Jazz | Label: El Paraiso, Official Digital Download

Martin Rude (Sun River) & Jakob Skøtt (Causa Sui) team up for a genre-defying record that was recorded during an exceptional session on March 3rd 2020. Martin brought his Double Bass, Acoustic & Baritone guitar into the studio of Causa Sui, where Jakob's drums were already miked & prepped by soundwiz Jonas Munk, freshly tuned from the new Causa Sui recordings. The music they played ranges from sprawled out pre-fusion electric jazz to psychedelic folk ragas. After the sessions, the hours of free floating music was edited & dubbed by Jakob Skøtt into shorter cohesive segments, but maintaining the improvised vibe of these first takes.

It is a record that pays homage to the great innovators of jazz: Miles & Trane (or perhaps more fittingly their peak-drummers: Tony Williams, Jack DeJohnette & Elvin Jones), as well as Mingus at his fiercest or Sun Ra at his most exotic. Not merely a tribute, the album doubles down with guitar pickings ala John Fahey & Sandy Bull, as well as sparse layers of oddly-tempered mallet percussion and synthesizers. But perhaps the closest reference isn't something of a certain place in time, but rather a free flowing ethos of stoic proportions: letting happen what it may, turning the accidents and mistakes along the way into something vital.

TRACKLIST

1. Martin Rude & Jakob Skøtt Duo - Flails & Strands
2. Martin Rude & Jakob Skøtt Duo - A New Arrival
3. Martin Rude & Jakob Skøtt Duo - Aurelius Dye
4. Martin Rude & Jakob Skøtt Duo - Setenta y Tres
5. Martin Rude & Jakob Skøtt Duo - Sequoia Sketch
6. Martin Rude & Jakob Skøtt Duo - The Slip
7. Martin Rude & Jakob Skøtt Duo - The Short Sun
8. Martin Rude & Jakob Skøtt Duo - Random Treasures
9. Martin Rude & Jakob Skøtt Duo - Mountain Montage

foobar2000 1.3.16 / Dynamic Range Meter 1.1.1
log date: 2020-08-07 07:30:27

––––––––––––––––––––––––––––––––––––––––
Analyzed: Martin Rude & Jakob Skøtt Duo / The Discipline of Assent
––––––––––––––––––––––––––––––––––––––––

DR Peak RMS Duration Track
––––––––––––––––––––––––––––––––––––––––
DR10 -1.00 dB -12.44 dB 5:02 01-Flails & Strands
DR10 -1.00 dB -12.64 dB 3:18 02-A New Arrival
DR10 -1.00 dB -12.44 dB 3:20 03-Aurelius Dye
DR10 -1.00 dB -12.45 dB 2:04 04-Setenta y Tres
DR10 -1.00 dB -13.20 dB 3:18 05-Sequoia Sketch
DR10 -1.00 dB -12.67 dB 2:29 06-The Slip
DR11 -1.00 dB -13.87 dB 2:45 07-The Short Sun
DR10 -1.00 dB -12.12 dB 3:55 08-Random Treasures
DR11 -1.00 dB -14.63 dB 11:04 09-Mountain Montage
––––––––––––––––––––––––––––––––––––––––

Number of tracks: 9
Official DR value: DR10

Samplerate: 44100 Hz
Channels: 2
Bits per sample: 24
Bitrate: 1465 kbps
Codec: FLAC
================================================================================



Thanks to the Original customer.