Marvin Gaye - Greatest Hits Vol.2 (1967/2021) [Official Digital Download 24/192]

Posted By: pyatak
Marvin Gaye - Greatest Hits Vol.2 (1967/2021) [Official Digital Download 24/192]

Marvin Gaye - Greatest Hits Vol.2 (1967/2021) [Official Digital Download 24/192]
FLAC (tracks) 24-bit/192 kHz | Front Cover | Time - 32:52 minutes | 1,47 GB
Soul | Label: UNI/MOTOWN, Official Digital Download

Marvin Gaye's Greatest Hits, Vol. 2 is a compilation album of greatest hits, a second compilation by American R&B/soul singer Marvin Gaye.

Other than the Anthology line, this was for quite a while the best single album set featuring Gaye's early and mid-'60s hits. There isn't a dud in the bunch, but both the Super Hits and Anthology line give you more cuts, while the boxed set has more variety. But this isn't by any stretch a bad release.

TRACKLIST

1. Marvin Gaye - How Sweet It Is (To Be Loved By You)
2. Marvin Gaye - One More Heartache
3. Marvin Gaye - Your Unchanging Love (Album Version)
4. Marvin Gaye - I'll Be Doggone
5. Marvin Gaye - Little Darling (I Need You)
6. Marvin Gaye - Pretty Little Baby (Single Version (Mono))
7. Marvin Gaye - Ain't That Peculiar (Single Version)
8. Marvin Gaye - Baby Don't You Do It (Stereo Version)
9. Marvin Gaye - Try It Baby (Stereo Version)
10. Marvin Gaye - Take This Heart Of Mine (Stereo Mix)
11. Marvin Gaye - Hey Diddle Diddle (Album Version / Stereo)
12. Marvin Gaye - Forever (Stereo Version)

foobar2000 1.6.2 / Dynamic Range Meter 1.1.1
log date: 2021-03-28 12:29:04

––––––––––––––––––––––––––––––––––––––––
Analyzed: Marvin Gaye / Greatest Hits
––––––––––––––––––––––––––––––––––––––––

DR Peak RMS Duration Track
––––––––––––––––––––––––––––––––––––––––
DR10 -0.20 dB -11.80 dB 2:53 01-How Sweet It Is (To Be Loved By You)
DR11 -0.20 dB -12.18 dB 2:42 02-One More Heartache
DR10 -0.20 dB -12.03 dB 3:17 03-Your Unchanging Love (Album Version)
DR9 -0.20 dB -12.04 dB 2:47 04-I'll Be Doggone
DR10 -0.20 dB -11.92 dB 2:35 05-Little Darling (I Need You)
DR8 -0.20 dB -9.98 dB 2:38 06-Pretty Little Baby (Single Version (Mono))
DR10 -0.20 dB -11.03 dB 2:59 07-Ain't That Peculiar (Single Version)
DR10 -0.20 dB -11.23 dB 2:34 08-Baby Don't You Do It (Stereo Version)
DR8 -0.20 dB -9.04 dB 2:50 09-Try It Baby (Stereo Version)
DR9 -0.20 dB -10.44 dB 2:47 10-Take This Heart Of Mine (Stereo Mix)
DR9 -0.20 dB -10.81 dB 2:30 11-Hey Diddle Diddle (Album Version / Stereo)
DR9 -0.20 dB -10.31 dB 2:22 12-Forever (Stereo Version)
––––––––––––––––––––––––––––––––––––––––

Number of tracks: 12
Official DR value: DR9

Samplerate: 192000 Hz
Channels: 2
Bits per sample: 24
Bitrate: 6244 kbps
Codec: FLAC
================================================================================



Thanks to the Original customer.