Tags
Language
Tags

Marvin Gaye & Tammi Terrell ‎- United (1967/2016) [Official Digital Download 24bit/192kHz]

Posted By:
Marvin Gaye & Tammi Terrell ‎- United (1967/2016) [Official Digital Download 24bit/192kHz]

Marvin Gaye & Tammi Terrell ‎- United (1967/2016)
R&B, Pop-Soul, Motown | FLAC (tracks), 24bit/192kHz | 36:46 Min | 1,78 Gb (incl 5%) | Front Cover
Label: Universal Motown | Tracks: 12 | Released: 2016 (1967-08-29)

"United" is a studio album by soul musicians Marvin Gaye and Tammi Terrell, released August 29, 1967 on the Motown-subsidiary label Tamla Records. Harvey Fuqua and Johnny Bristol produced all of the tracks on the album, with the exception of "You Got What It Takes" (produced by Motown CEO Berry Gordy, Jr.) and "Oh How I'd Miss You" (produced by Hal Davis). Fuqua and Bristol produced "Hold Me Oh My Darling" and "Two Can Have a Party" as Tammi Terrell solo tracks in 1965 and 1966, and had Gaye overdub his vocals to them in order to create duet versions of the songs. United yielded four Top 100 Billboard chart hits, including the two Top 10 singles "Your Precious Love," "If I Could Build My Whole World Around You," the Top 20 single, "Ain't No Mountain High Enough" and "If This World Were Mine". "United" peaked at #69 on the U.S. Billboard 200 album chart and #7 on the U.S. Billboard R&B albums chart upon its release. The album was the first of two collaborative albums by Gaye and Terrell.
~Wikipedia~


Release of this album: 1967, August, 29 [LP Tamla, Cat.# TS 277, USA]
Release of this HDtracks edition: 2016 [Label: Universal Motown]
℗ 2016 Motown Records, a Division of UMG Recordings, Inc.
© 1967 Motown Records, a Division of UMG Recordings, Inc.

Credits:
Lead vocals: Marvin Gaye, Tammi Terrell
Background vocals: Marvin Gaye, Tammi Terrell, Harvey Fuqua, Johnny Bristol, The Originals, The Andantes, The Spinners
Production: Harvey Fuqua, Johnny Bristol, Hal Davis, Berry Gordy, Jr.
Instrumentation: The Funk Brothers (uncredited)


Notes: Official Digital Download. This album download features digital front cover art only. Liner notes are not available.

Tracklist:

01. "Ain't No Mountain High Enough" (02:28)
(Nickolas Ashford, Valerie Simpson)
02. "You Got What It Takes" (02:55)
(Berry Gordy, Jr., Gwen Gordy, Tyran Carlo)
03. "If I Could Build My Whole World Around You" (02:21)
(Harvey Fuqua, Johnny Bristol, Vernon Bullock)
04. "Somethin' Stupid" (02:41)
(C. Carson Parks)
05. "Your Precious Love" (03:03)
(Nickolas Ashford, Valerie Simpson)
06. "Hold Me Oh My Darling" (02:47)
(Harvey Fuqua)
07. "Two Can Have a Party" (02:14)
(Johnny Bristol, Harvey Fuqua, Thomas Kemp)
08. "Little Ole Boy, Little Ole Girl" (02:41)
(Harvey Fuqua, Etta James, Brook Benton)
09. "If This World Were Mine" (02:42)
(Marvin Gaye)
10. "Sad Wedding" (03:23)
(Johnny Bristol, Jackey Beavers)
11. "Give A Little Love" (02:57)
(Johnny Bristol, Harvey Fuqua, Clyde Wilson)
12. "Oh How I'd Miss You" (02:33)
(Hal Davis, Frank Wilson, Vance Wilson)

––––––––––––––––––––––––––––––––––––––––
Analyzed: Marvin Gaye & Tammi Terrell / United
––––––––––––––––––––––––––––––––––––––––

DR Peak RMS Duration Track
––––––––––––––––––––––––––––––––––––––––
DR9 0.00 dB -10.83 dB 2:28 01-Ain't No Mountain High Enough
DR10 0.00 dB -11.06 dB 2:55 02-You've Got What It Takes
DR9 0.00 dB -10.62 dB 2:21 03-If I Could Build My Whole World Around You
DR10 0.00 dB -10.93 dB 2:41 04-Somethin’ Stupid
DR11 0.00 dB -13.66 dB 3:03 05-Your Precious Love
DR10 0.00 dB -10.96 dB 2:47 06-Hold Me Oh My Darling
DR8 0.00 dB -10.39 dB 2:14 07-Two Can Have A Party
DR10 0.00 dB -11.95 dB 2:41 08-Little Ole Boy, Little Ole Girl
DR9 0.00 dB -12.22 dB 2:42 09-If This World Were Mine
DR10 0.00 dB -12.04 dB 3:23 10-Sad Wedding
DR9 0.00 dB -11.56 dB 2:57 11-Give A Little Love
DR9 0.00 dB -10.50 dB 2:33 12-Oh How I'd Miss You
––––––––––––––––––––––––––––––––––––––––

Number of tracks: 12
Official DR value: DR10

Samplerate: 192000 Hz
Channels: 2
Bits per sample: 24
Bitrate: 7263 kbps
Codec: FLAC
================================================================================
Nitroflare
Part 1 | Part 2 | Part 3
password: BlondStyle