Tags
Language
Tags

Marvin Gaye & Tammi Terrell - You're All I Need (1968/2016) [Official Digital Download 24bit/192kHz]

Posted By:
Marvin Gaye & Tammi Terrell - You're All I Need (1968/2016) [Official Digital Download 24bit/192kHz]

Marvin Gaye & Tammi Terrell - You're All I Need (1968/2016)
R&B, Pop-Soul, Motown | FLAC (tracks), 24bit/192kHz | 32:58 Min | 1,58 Gb (incl 5%) | Front Cover
Label: Universal Motown | Tracks: 12 | Released: 2016 (1968)

You're All I Need is the second studio album by soul musicians Marvin Gaye and Tammi Terrell, released in August 1968 on Motown-subsidiary label Tamla Records. Highlighted by three hit singles written by Nickolas Ashford and Valerie Simpson (who composed two of the four hit songs on the first Gaye/Terrell duets LP, United), You're All I Need was recorded throughout 1966 and 1967 and features two Top 10 Billboard Hot 100 hits, "Ain't Nothing Like the Real Thing" and "You're All I Need to Get By". It peaked at #60 on the U.S. Billboard 200 Album Chart. You're All I Need was the two singers' final collaboration effort, as Terrell would turn ill following recording, before succumbing to a brain tumor in 1970. The album was recorded in 1966 and 1967 during the time Gaye and Terrell's first collaboration album United was released. After recording You're All I Need, Tammi Terrell collapsed onstage while performing with Gaye at the Hampden-Sydney College homecoming in Virginia. She was later diagnosed with a brain tumor, and could no longer record nor perform live. According to Gaye, the final Gaye/Terrell album, Easy, would be completed by having Valerie Simpson fill in for Tammi Terrell on most of the album's songs, and having Gaye overdub archived Terrell solo tracks for two tracks. Simpson vehemently denies this and says they had to record Tammi's vocals in pieces in order to get the project done. Nickolas Ashford and Valerie Simpson produced the singles "Ain't Nothing Like the Real Thing", "Keep On Loving Me Honey," and "You're All I Need to Get By." Harvey Fuqua and Johnny Bristol produced the rhythm tracks and Terrell's vocal for "You Ain't Livin' 'Til You're Lovin'," with Ashford and Simpson completing the production and supervising Gaye's vocal. Fuqua and Bristol also produced "I'll Never Stop Loving You Baby" while Motown CEO Berry Gordy, Jr.'s brother Robert Gordy produced "I Can't Help But Love You." Harvey Fuqua and Johnny Bristol produced "Come On and See Me," "Baby Dont'cha Worry," "Give In, You Just Can't Win," "When Love Comes Knocking At Your Heart," "That's How It Is (Since You've Been Gone)," and "Memory Chest" as Tammi Terrell solo tracks in 1965 and 1966, and had Gaye overdub his vocals to them to create duet versions. ~Wikipedia~

Release of this album: 1968, August [LP Tamla, Cat.# S-284, USA]
Release of this HDtracks edition: 2016, February, 5 [Label: Universal Motown]
℗ 2016 Motown Records, a Division of UMG Recordings, Inc.
© 1968 Motown Records, a Division of UMG Recordings, Inc.

Note: Official Digital Download. This album download features digital front cover art only. Liner notes are not available.

Credits:
Lead (and additional background) vocals by Marvin Gaye and Tammi Terrell
Background vocals by Nickolas Ashford, Valerie Simpson, The Originals, The Andantes and The Spinners
Instrumentation by The Funk Brothers
Producer – Harvey Fuqua, Johnny Bristol, Ashford & Simpson, Robert Gordy


Tracklist:

01. Ain't Nothing Like The Real Thing (02:15)
(Ashford & Simpson)
02. Keep On Lovin' Me Honey (02:31)
(Ashford & Simpson)
03. You're All I Need To Get By (02:51)
(Ashford & Simpson)
04. Baby Don't Cha Worry (02:56)
(Jackey Beavers, Johnny Bristol)
05. You Ain't Livin' Till You're Lovin' (02:49)
(Ashford & Simpson)
06. Give In, You Just Can't Win (02:35)
(Harvey Fuqua, Johnny Bristol)
07. When Love Comes Knocking At My Heart (02:30)
(Gladys Knight, Harvey Fuqua, Johnny Bristol, Vernon Bullock)
08. Come On And See Me (02:27)
(Harvey Fuqua, Johnny Bristol)
09. I Can't Help But Love You (02:48)
(Berry Gordy, Marvin Gaye, Thomas Kemp)
10. That's How It Is (Since You've Been Gone) (03:01)
(Harvey Fuqua, Johnny Bristol, Vernon Bullock)
11. I'll Never Stop Loving You Baby (03:22)
(Beatrice Verdi, Harvey Fuqua, Johnny Bristol, Mary Balnius)
12. Memory Chest (02:53)
(Harvey Fuqua, Johnny Bristol)

––––––––––––––––––––––––––––––––––––––––
Analyzed: Marvin Gaye, Tammi Terrell / You're All I Need
––––––––––––––––––––––––––––––––––––––––

DR Peak RMS Duration Track
––––––––––––––––––––––––––––––––––––––––
DR10 0.00 dB -11.37 dB 2:15 01-Ain't Nothing Like The Real Thing
DR11 0.00 dB -12.49 dB 2:31 02-Keep On Lovin' Me Honey
DR9 -0.11 dB -11.86 dB 2:51 03-You're All I Need To Get By
DR11 -0.09 dB -12.46 dB 2:56 04-Baby Don't Cha Worry
DR10 0.00 dB -11.31 dB 2:49 05-You Ain't Livin' Till You're Lovin'
DR9 0.00 dB -11.26 dB 2:35 06-Give In, You Just Can't Win
DR10 0.00 dB -11.17 dB 2:30 07-When Love Comes Knocking At My Heart
DR10 -0.08 dB -11.28 dB 2:27 08-Come On And See Me
DR10 0.00 dB -11.59 dB 2:48 09-I Can't Help But Love You
DR10 0.00 dB -10.95 dB 3:01 10-That's How It Is (Since You've Been Gone)
DR9 0.00 dB -10.70 dB 3:22 11-I'll Never Stop Loving You Baby
DR10 0.00 dB -11.36 dB 2:53 12-Memory Chest
––––––––––––––––––––––––––––––––––––––––

Number of tracks: 12
Official DR value: DR10

Samplerate: 192000 Hz
Channels: 2
Bits per sample: 24
Bitrate: 6443 kbps
Codec: FLAC
================================================================================

All thanks to the original customer
Nitroflare
Part 1 | Part 2 | Part 3
password: BlondStyle