Tags
Language
Tags

Mastodon - Cold Dark Place EP (2017) [Official Digital Download]

Posted By: Pisulik
Mastodon - Cold Dark Place EP (2017) [Official Digital Download]

Mastodon - Cold Dark Place EP (2017)
FLAC (tracks) 24-bit/44.1 kHz | Time - 21:50 minutes | 263 MB
Studio Master, Official Digital Download | Artwork: Front cover

A new EP featuring four previously unreleased tracks via Reprise Records. Three of the tracks, "North Side Star," "Blue Walsh," and "Cold Dark Place," were recorded during the sessions for Mastodon's 2014 album Once More ‘Round The Sunand were produced by Nick Raskulinecz. A fourth track, "Toe to Toes," was recorded during the sessions for the band's most recent album, 2016's Emperor of Sand, and was produced by Brendan O'Brien.

Tracklist:

01. North Side Star
02. Blue Walsh
03. Toe to Toes
04. Cold Dark Place

foobar2000 1.3.7 / Dynamic Range Meter 1.1.1
log date: 2018-01-02 13:54:56

––––––––––––––––––––––––––––––––––––––––
Analyzed: Mastodon / Cold Dark Place EP
––––––––––––––––––––––––––––––––––––––––

DR Peak RMS Duration Track
––––––––––––––––––––––––––––––––––––––––
DR8 -0.25 dB -9.14 dB 6:10 01-North Side Star
DR6 -0.20 dB -8.11 dB 5:13 02-Blue Walsh
DR7 -0.31 dB -8.14 dB 4:29 03-Toe to Toes
DR8 -0.27 dB -10.52 dB 5:59 04-Cold Dark Place
––––––––––––––––––––––––––––––––––––––––

Number of tracks: 4
Official DR value: DR7

Samplerate: 44100 Hz
Channels: 2
Bits per sample: 24
Bitrate: 1624 kbps
Codec: FLAC
================================================================================


All thanks go to the original releaser