Miles Davis - Volume 2 (1953/2014) [Official Digital Download 24/192]

Posted By: pyatak
Miles Davis - Volume 2 (1953/2014) [Official Digital Download 24/192]

Miles Davis - Volume 2 (1953/2014) [Official Digital Download 24/192]
FLAC (tracks) 24-bit/192 kHz | Front Cover | Time - 44:09 minutes | 1,38 GB
Jazz | Label: Blue Note (BLU), Official Digital Download

Miles Davis Volume 2 refers to two separate but related entities. The first is a Miles Davis studio album released by Blue Note Records as a 10-inch LP, as BLP 5022 in 1953. The six tracks from this LP plus five alternate takes were released on CD in 1990 and remastered with restored artwork in 2001.

The second Miles Davis Volume 2 is a compilation of tracks from all three of his sessions with the label, released (with different cover art) in 1956 as BLP 1502.

The original 10-inch LP (BLP 5022) contained music from Davis' second session for Blue Note, recorded April 20, 1953. The recording was made at a point in Davis' life when he was struggling with heroin addiction, and in his autobiography Davis remembers that he, Jimmy Heath, and Art Blakey were all very high in the studio. Davis also states that the song title "C.T.A." was named after Heath's girlfriend Connie Theresa Ann

TRACKLIST

1. Miles Davis Quintet - Take Off (Remastered 1998)
2. Miles Davis Quintet - Weirdo (Remastered 1998)
3. Miles Davis Quintet - Would'n You (Remastered 1998)
4. Miles Davis - I Waited For You (Rudy Van Gelder Edition/Remastered 1998)
5. Miles Davis Quintet - Ray's Idea (Alternate Take)
6. Miles Davis Quintet - Donna (Remastered 2001)
7. Miles Davis Quintet - Well You Needn't (Remastered 1998)
8. Miles Davis Quintet - The Leap (Remastered 1998)
9. Miles Davis Quintet - Lazy Susan (Remastered 1998)
10. Miles Davis Quintet - Tempus Fugit (Alternate Take)
11. Miles Davis Quintet - It Never Entered My Mind (Remastered)

foobar2000 1.6.2 / Dynamic Range Meter 1.1.1
log date: 2021-05-04 20:19:36

––––––––––––––––––––––––––––––––––––––––
Analyzed: Miles Davis Quintet / Volume 2 (1-10)
Miles Davis / Volume 2 (11)
––––––––––––––––––––––––––––––––––––––––

DR Peak RMS Duration Track
––––––––––––––––––––––––––––––––––––––––
DR14 -0.18 dB -17.08 dB 3:39 01-Take Off (Remastered 1998)
DR14 -0.32 dB -16.95 dB 4:44 02-Weirdo (Remastered 1998)
DR13 -0.31 dB -16.32 dB 3:25 03-Would'n You (Remastered 1998)
DR14 -0.36 dB -16.02 dB 3:49 05-Ray's Idea (Alternate Take)
DR14 0.00 dB -15.55 dB 3:13 06-Donna (Remastered 2001)
DR15 -1.09 dB -17.81 dB 5:23 07-Well You Needn't (Remastered 1998)
DR14 -1.01 dB -17.03 dB 4:30 08-The Leap (Remastered 1998)
DR14 -1.30 dB -18.10 dB 4:02 09-Lazy Susan (Remastered 1998)
DR15 -0.02 dB -16.31 dB 3:57 10-Tempus Fugit (Alternate Take)
DR9 -6.25 dB -18.33 dB 4:03 11-It Never Entered My Mind (Remastered)
DR12 -2.46 dB -18.04 dB 3:30 04-I Waited For You (Rudy Van Gelder Edition/Remastered 1998)
––––––––––––––––––––––––––––––––––––––––

Number of tracks: 11
Official DR value: DR13

Samplerate: 192000 Hz
Channels: 2
Bits per sample: 24
Bitrate: 4359 kbps
Codec: FLAC
================================================================================



Thanks to the Original customer.