Minnesota Orchestra - Mahler - Symphony No. 7 in E Minor ''Song of the Night'' (2020) [Official Digital Download 24/96]

Posted By: pyatak
Minnesota Orchestra  - Mahler - Symphony No. 7 in E Minor ''Song of the Night'' (2020) [Official Digital Download 24/96]

Minnesota Orchestra - Mahler - Symphony No. 7 in E Minor ''Song of the Night'' (2020) [Official Digital Download 24/96]
FLAC (tracks) 24-bit/96 kHz | Front Cover | Time - 77:30 minutes | 1,29 GB
Classical | Label: BIS, Official Digital Download

In an effort to arrange the first performance of his Seventh Symphony, Gustav Mahler declared it to be his best work, ‘preponderantly cheerful in character’. His younger colleague Schoenberg expressed his admiration for the work, and Webern considered it his favorite Mahler symphony. Nevertheless, it remains the least performed and least written-about symphony of the entire cycle, and has come to be regarded as enigmatic and less successful than its siblings. One reason for this has been the huge – even for Mahler – contrasts that it encompasses: from a first movement which seems to continue the atmosphere of the previous symphony, the ‘Tragic’ Sixth, to a finale that has been accused of excessive triumphalism, and which Mahler himself once described as ‘broad daylight’. Between these two poles, he supplies no less than two movements entitled Nachtmusik (‘night music’) framing a scherzo to which the composer added the character marking schattenhaft (‘shadowy’). Mahler famously said that ‘a symphony must be like the world. It must embrace everything.’ The Seventh is as true to this dictum as any other of the symphonies, offering a wealth of emotions, moods and colours.

TRACKLIST

1. Minnesota Orchestra & Osmo Vänskä - Symphony No. 7 in E Minor "Song of the Night": I. Langsam
2. Minnesota Orchestra & Osmo Vänskä - Symphony No. 7 in E Minor "Song of the Night": II. Nachtmusik
3. Minnesota Orchestra & Osmo Vänskä - Symphony No. 7 in E Minor "Song of the Night": III. Scherzo
4. Minnesota Orchestra & Osmo Vänskä - Symphony No. 7 in E Minor "Song of the Night": IV. Nachtmusik
5. Minnesota Orchestra & Osmo Vänskä - Symphony No. 7 in E Minor "Song of the Night": V. Rondo finale

foobar2000 1.3.16 / Dynamic Range Meter 1.1.1
log date: 2020-06-03 15:20:44

––––––––––––––––––––––––––––––––––––––––
Analyzed: Minnesota Orchestra & Osmo Vänskä / Mahler: Symphony No. 7 in E Minor "Song of the Night"
––––––––––––––––––––––––––––––––––––––––

DR Peak RMS Duration Track
––––––––––––––––––––––––––––––––––––––––
DR15 -0.34 dB -20.03 dB 22:52 01-Symphony No. 7 in E Minor "Song of the Night": I. Langsam
DR17 -3.94 dB -26.83 dB 15:30 02-Symphony No. 7 in E Minor "Song of the Night": II. Nachtmusik
DR15 -3.20 dB -24.74 dB 8:42 03-Symphony No. 7 in E Minor "Song of the Night": III. Scherzo
DR15 -7.84 dB -28.90 dB 12:27 04-Symphony No. 7 in E Minor "Song of the Night": IV. Nachtmusik
DR15 -0.34 dB -20.77 dB 18:00 05-Symphony No. 7 in E Minor "Song of the Night": V. Rondo finale
––––––––––––––––––––––––––––––––––––––––

Number of tracks: 5
Official DR value: DR15

Samplerate: 96000 Hz
Channels: 2
Bits per sample: 24
Bitrate: 2443 kbps
Codec: FLAC
================================================================================



Thanks to the Original customer.