Roger Eno and Brian Eno - Mixing Colours (2020) [Official Digital Download]

Posted By: SERTiL
Roger Eno and Brian Eno - Mixing Colours (2020) [Official Digital Download]

Roger Eno and Brian Eno - Mixing Colours (2020)
FLAC (tracks) 24-bit/44.1 kHz | Time - 75:07 minutes | 534 MB
Studio Master, Official Digital Download | Artwork: Front Cover

Roger Eno and Brian Eno - together and individually among the foremost innovators in experimental ambient music - will release this album on Deutsche Grammophon. Brian and Roger Eno have revolutionized many concepts of music production and performance, from pioneering treatments of pop music by Brian Eno to younger brother Roger Eno's ambient synth/piano recordings reminiscent of Erik Satie.

Tracklist:
01. Spring Frost (4:07)
02. Burnt Umber (4:16)
03. Celeste (4:23)
04. Wintergreen (4:10)
05. Obsidian (5:06)
06. Blonde (4:10)
07. Dark Sienna (3:48)
08. Verdigris (4:03)
09. Snow (4:40)
10. Rose Quartz (4:07)
11. Quicksilver (5:12)
12. Ultramarine (2:28)
13. Iris (2:54)
14. Cinnabar (3:21)
15. Desert Sand (4:50)
16. Deep Saffron (4:39)
17. Cerulean Blue (4:05)
18. Slow Movement Sand (4:56)

foobar2000 1.3.7 / Dynamic Range Meter 1.1.1
log date: 2020-03-20 11:50:32

––––––––––––––––––––––––––––––––––––––––
Analyzed: Roger Eno / Mixing Colours
––––––––––––––––––––––––––––––––––––––––

DR Peak RMS Duration Track
––––––––––––––––––––––––––––––––––––––––
DR11 -0.32 dB -17.90 dB 4:07 01-Spring Frost
DR10 -3.58 dB -17.50 dB 4:16 02-Burnt Umber
DR11 -0.20 dB -16.17 dB 4:23 03-Celeste
DR12 -3.81 dB -20.82 dB 4:10 04-Wintergreen
DR10 -9.71 dB -23.65 dB 5:06 05-Obsidian
DR11 -1.21 dB -16.27 dB 4:10 06-Blonde
DR12 -0.32 dB -16.45 dB 3:48 07-Dark Sienna
DR10 -0.32 dB -18.41 dB 4:03 08-Verdigris
DR14 -0.85 dB -19.59 dB 4:40 09-Snow
DR13 -1.15 dB -19.48 dB 4:07 10-Rose Quartz
DR11 -1.26 dB -15.74 dB 5:12 11-Quicksilver
DR14 -0.32 dB -18.23 dB 2:28 12-Ultramarine
DR12 -1.81 dB -17.62 dB 2:54 13-Iris
DR12 -1.73 dB -17.77 dB 3:21 14-Cinnabar
DR12 -1.65 dB -18.88 dB 4:50 15-Desert Sand
DR12 -0.32 dB -18.33 dB 4:39 16-Deep Saffron
DR12 -6.52 dB -24.68 dB 4:05 17-Cerulean Blue
DR15 -0.32 dB -17.98 dB 4:56 18-Slow Movement: Sand
––––––––––––––––––––––––––––––––––––––––

Number of tracks: 18
Official DR value: DR12

Samplerate: 44100 Hz
Channels: 2
Bits per sample: 24
Bitrate: 1005 kbps
Codec: FLAC
================================================================================


Thanks to the Original customer.