Tags
Language
Tags

Morcheeba - Blackest Blue (2021) [Official Digital Download]

Posted By:
Morcheeba - Blackest Blue (2021) [Official Digital Download]

Morcheeba - Blackest Blue (2021) [Official Digital Download]
FLAC (tracks) 24-bit/44.1 kHz | Front Cover | Time - 43:19 minutes | 489 MB
Pop, Trip Hop | Label: Fly Agaric Records, Official Digital Download

Pioneers of the British music scene, 'Blackest Blue' will be the band's 10th studio album in a discography that spans three decades. 2020 saw Morcheeba unable to tour or perform live, which gave Skye Edwards & Ross Godfrey "time to write songs and really get to hone them," as Godfrey puts it. "There weren't so many pressures so we could really take our time getting the songs right," adds Edwards. The result of this time is a refined 10 track album that fuses previous incarnations and sound of the band - such as downbeat, chill, electro-pop & soul - into one cohesive record that dives deep into the soul of the band's genre-mashing musical heritage. As usual, the band didn't approach the album with any pre-conceptions, and instead created an organic journey that represents everything great about Morcheeba. Edwards' lyrics are primarily focused on positivity and overcoming personal adversity that lies within. 'Sounds Of Blue', is a stunning cut that puts Skye Edward's sultry vocals to the forefront, floating high above an ethereal backdrop. The album includes features with Duke Garwood (known for his work with Mark Lanegan, amongst others) and Brad Barr (The Slip, The Barr Brothers). " Morcheeba's global reach is impressive, taking them to every corner of the world . Their signature chilled electronic/organic sound has been border-hopping ever since the London-based band emerged as a household name. The past year has been one of introspection for the duo, as they take stock of their renewed global fan base and look forward to being able to play the new album live in the not too distant future. "This was the first time since I was a teenager that I'd spent a year off the road and I enjoyed the tranquility, although I missed playing my guitar in far off lands," says Godfrey.

TRACKLIST

1. Morcheeba - Cut My Heart Out
2. Morcheeba - Killed Our Love
3. Morcheeba - Sounds Of Blue
4. Morcheeba - Say It's Over
5. Morcheeba - Sulphur Soul
6. Morcheeba - Oh Oh Yeah
7. Morcheeba - Namaste
8. Morcheeba - The Moon
9. Morcheeba - Falling Skies
10. Morcheeba - The Edge Of The World

foobar2000 1.6.2 / Dynamic Range Meter 1.1.1
log date: 2021-05-13 23:46:40

––––––––––––––––––––––––––––––––––––––––
Analyzed: Morcheeba / Blackest Blue
––––––––––––––––––––––––––––––––––––––––

DR Peak RMS Duration Track
––––––––––––––––––––––––––––––––––––––––
DR6 -0.10 dB -8.50 dB 5:02 01-Cut My Heart Out
DR8 -0.10 dB -9.95 dB 4:52 02-Killed Our Love
DR7 -0.10 dB -9.34 dB 3:35 03-Sounds Of Blue
DR8 -2.10 dB -12.64 dB 3:54 04-Say It's Over
DR6 -0.10 dB -7.45 dB 3:13 05-Sulphur Soul
DR7 -0.10 dB -9.40 dB 6:53 06-Oh Oh Yeah
DR8 -0.10 dB -9.37 dB 3:54 07-Namaste
DR6 -0.10 dB -8.29 dB 3:29 08-The Moon
DR6 -0.10 dB -8.22 dB 3:11 09-Falling Skies
DR6 -0.10 dB -7.59 dB 5:16 10-The Edge Of The World
––––––––––––––––––––––––––––––––––––––––

Number of tracks: 10
Official DR value: DR7

Samplerate: 44100 Hz
Channels: 2
Bits per sample: 24
Bitrate: 1583 kbps
Codec: FLAC
================================================================================



Thanks to the Original customer.