Mosambique - Big City Moves (2019) [Official Digital Download]

Posted By: Pisulik
Mosambique - Big City Moves (2019) [Official Digital Download]

Mosambique - Big City Moves (2019)
FLAC (tracks) 24-bit/48 kHz | Time - 33:35 minutes | 401 MB
Studio Master, Official Digital Download | Artwork: Front cover

Mosambique hits you right in the face with its snappy synths, sassy horns and pulsating rhythms. It's dirty and raw, with a scoop of self-irony. The band shows that jazz has no trouble being danceable! With roots in both jazz, afrobeat and today's club music the band has created a sound that echoes 2019. Ivan Blomqvist, known from the band Rohey, has gathered some of the best young jazz musicians that Norway has to offer. Together they have created music that can both appeal to jazz cats and the young club scene. In March 2019, their debut album, «Big City Moves» will be released on Jazzland Recordings. Be prepared for a musical vitamin boost!

Tracklist:

01. Mosambique
02. Mr. Cool
03. Milla Mo
04. The Underdog
05. The Chase
06. Fela
07. That's Too Fast
08. Into The Night

Personnel:

Ivan Blomqvist - keyboards
Lauritz Lyster Skeidsvoll - saxophone
Lyder Øvreås Røed - trumpet
Kristian B. Jacobsen - bass
Henrik Lødøen - drums

foobar2000 1.3.7 / Dynamic Range Meter 1.1.1
log date: 2019-03-15 00:45:30

––––––––––––––––––––––––––––––––––––––––
Analyzed: Mosambique / Big City Moves
––––––––––––––––––––––––––––––––––––––––

DR Peak RMS Duration Track
––––––––––––––––––––––––––––––––––––––––
DR6 -0.53 dB -8.01 dB 4:49 01-Big City Moves
DR5 -0.53 dB -8.32 dB 3:29 02-Mr. Cool
DR10 -1.06 dB -13.52 dB 1:10 03-Milla Mo
DR7 -0.53 dB -9.86 dB 4:41 04-The Underdog
DR7 -0.53 dB -8.74 dB 5:19 05-The Chase
DR5 -0.53 dB -7.75 dB 6:04 06-Fela
DR6 -0.53 dB -8.63 dB 2:50 07-That's Too Fast
DR7 -0.53 dB -9.13 dB 5:19 08-Into The Night
––––––––––––––––––––––––––––––––––––––––

Number of tracks: 8
Official DR value: DR7

Samplerate: 48000 Hz
Channels: 2
Bits per sample: 24
Bitrate: 1622 kbps
Codec: FLAC
================================================================================


All thanks go to the original releaser