Mount Eerie - Lost Wisdom, Pt. 2 (2019) [Official Digital Download 24/96]

Posted By: Pisulik
Mount Eerie - Lost Wisdom, Pt. 2 (2019) [Official Digital Download 24/96]

Mount Eerie - Lost Wisdom, Pt. 2 (2019)
FLAC (tracks) 24-bit/96 kHz | Time - 31:26 minutes | 604 MB
Studio Master, Official Digital Download | Artwork: Front cover

In October 2008, Mount Eerie and Canadian singer-songwriter Julie Doiron released a collaborative album called Lost Wisdom. They are now releasing its sequel: Lost Wisdom pt. 2 is out November 8 via Mount Eerie’s label P.W. Elverum & Sun. Below, listen to their new song “Love Without Possession.”

Mount Eerie and Julie Doiron will play shows together this December. According to a press release, those concerts will “likely be the only performance of this album’s material for the foreseeable future.” Find Mount Eerie and Julie Doiron’s schedule below.

In a statement, Phil Elverum discussed the themes and intentions of the new record. He refers to the death of his wife, the artist Geneviève Castrée, which inspired his last two studio albums, 2017’s A Crow Looked at Me and 2018’s Now Only. He also alludes to his marriage to Michelle Williams and their separation earlier this year. “Finding myself staring into another fire, disoriented by the changes, these songs came out,” he wrote.

Elverum continued, “I tried to make songs that did not rely at all on who I am or who I am singing about,” adding, “Knowing that anyone with internet access might have questions about my specifics, I don’t want to say anything personal that isn’t already in the songs. My fingers are crossed that when I push them out to sea they will be met with calm humane understanding. That’s what they’re about after all.” Find Phil Elverum’s full statement below.

Tracklist:

01. Belief (feat. Julie Doiron) (07:23)
02. When I Walk out of the Museum (feat. Julie Doiron) (02:52)
03. Enduring the Waves (feat. Julie Doiron) (02:50)
04. Love Without Possession (feat. Julie Doiron) (04:32)
05. Real Lost Wisdom (feat. Julie Doiron) (04:08)
06. Widows (feat. Julie Doiron) (03:02)
07. Pink Light (feat. Julie Doiron) (01:57)
08. Belief Pt. 2 (feat. Julie Doiron) (04:42)

foobar2000 1.3.7 / Dynamic Range Meter 1.1.1
log date: 2019-11-08 13:42:54

––––––––––––––––––––––––––––––––––––––––
Analyzed: Mount Eerie / Lost Wisdom, Pt. 2
––––––––––––––––––––––––––––––––––––––––

DR Peak RMS Duration Track
––––––––––––––––––––––––––––––––––––––––
DR8 -0.10 dB -10.55 dB 7:23 01-Belief
DR10 -0.10 dB -12.50 dB 2:53 02-When I Walk out of the Museum
DR10 -0.10 dB -11.75 dB 2:50 03-Enduring the Waves
DR10 -0.10 dB -12.16 dB 4:32 04-Love Without Possession
DR10 -0.10 dB -12.13 dB 4:08 05-Real Lost Wisdom
DR6 -0.10 dB -9.92 dB 3:02 06-Widows
DR10 -0.27 dB -15.77 dB 1:58 07-Pink Light
DR9 -0.10 dB -10.62 dB 4:42 08-Belief Pt. 2
––––––––––––––––––––––––––––––––––––––––

Number of tracks: 8
Official DR value: DR9

Samplerate: 96000 Hz
Channels: 2
Bits per sample: 24
Bitrate: 2752 kbps
Codec: FLAC
================================================================================


All thanks go to the original releaser