London Brass, Rumon Gamba - Music of the Angels (2020) [Official Digital Download 24/96]

Posted By: SERTiL
London Brass, Rumon Gamba - Music of the Angels (2020) [Official Digital Download 24/96]

London Brass, Rumon Gamba - Music of the Angels (2020)
FLAC (tracks) 24-bit/96 kHz | Time - 65:13 minutes | 1.06 GB
Studio Master, Official Digital Download | Artwork: Digital Booklet

Edward Gregson began composing from a very early age, and his extensive output covers a wide range of musical sound-worlds. Music for film, television, and theatre sits alongside choral pieces and works for full orchestra. Having played in a brass band as a teenager, he has shown a special affinity in his compositions for brass throughout his career – both for brass band and for symphonic brass, which we celebrate with this new album. His seminal Quintet for Brass, Three Dance Episodes, and Aria for Philip mark his connection to the Philip Jones Brass Ensemble.

The album includes Fanfare for PL and Fanfare for a New Era, complementing his two largest-scale works for brass: the Symphony in two movements, and Music of the Angels. Virtuosic playing from London Brass under the direction of Rumon Gamba makes this an essential tribute to Gregson in his seventy-fifth year.

Tracklist:
1. Fanfare for a New Era (2:52)
2. Symphony in 2 Movements (Version for Symphonic Brass & Percussion): I. Toccata (5:24)
3. Symphony in 2 Movements (Version for Symphonic Brass & Percussion): IIa. Theme (1:49)
4. Symphony in 2 Movements (Version for Symphonic Brass & Percussion): IIb. Var. 1, Fast and Mercurial (1:36)
5. Symphony in 2 Movements (Version for Symphonic Brass & Percussion): IIc. Var. 2, Strict Tempo, Menacingly (1:30)
6. Symphony in 2 Movements (Version for Symphonic Brass & Percussion): IId. Var. 3, As the Beginning, but Serenely (4:27)
7. Symphony in 2 Movements (Version for Symphonic Brass & Percussion): IIe. Var. 4, Fast, with Energy (3:29)
8. 3 Dance Episodes: No. 1, Molto allegro (2:31)
9. 3 Dance Episodes: No. 2, Andante con espressione (4:07)
10. 3 Dance Episodes: No. 3, Vivace (2:49)
11. Flourish for an Occasion (0:58)
12. Fanfare for P.L. (1:41)
13. Brass Quintet: I. Andante sostenuto (5:44)
14. Brass Quintet: II. Allegro, molto ritmico (5:09)
15. Aria for Philip (Revised 2019 Version) (4:36)
16. Music of the Angels: I. Slow and Sombre (5:39)
17. Music of the Angels: II. Slowly, with a Sense of Desolation (2:28)
18. Music of the Angels: III. Faster (0:51)
19. Music of the Angels: IV. Cadenza (2:11)
20. Music of the Angels: V. Fast, with Energy (5:28)

foobar2000 1.3.7 / Dynamic Range Meter 1.1.1
log date: 2020-03-27 11:18:26

––––––––––––––––––––––––––––––––––––––––
Analyzed: Philip Jones Brass Ensemble / Music of the Angels
––––––––––––––––––––––––––––––––––––––––

DR Peak RMS Duration Track
––––––––––––––––––––––––––––––––––––––––
DR13 -0.92 dB -20.62 dB 2:52 01-Fanfare for a New Era
DR14 -0.87 dB -20.85 dB 5:24 02-I. Toccata
DR11 -7.00 dB -26.10 dB 1:49 03-IIa. Theme
DR14 -1.78 dB -22.94 dB 1:36 04-IIb. Var. 1, Fast and Mercurial
DR14 -2.74 dB -21.46 dB 1:30 05-IIc. Var. 2, Strict Tempo, Menacingly
DR15 -3.65 dB -25.92 dB 4:27 06-IId. Var. 3, As the Beginning, but Serenely
DR13 -0.90 dB -19.46 dB 3:29 07-IIe. Var. 4, Fast, with Energy
DR15 -2.04 dB -24.22 dB 2:31 08-No. 1, Molto allegro
DR13 -7.78 dB -28.62 dB 4:07 09-No. 2, Andante con espressione
DR13 -2.95 dB -23.86 dB 2:49 10-No. 3, Vivace
DR14 -2.56 dB -22.25 dB 0:58 11-Flourish for an Occasion
DR14 -3.07 dB -20.95 dB 1:41 12-Fanfare for P.L.
DR15 -2.98 dB -26.29 dB 5:44 13-I. Andante sostenuto
DR15 -3.53 dB -23.79 dB 5:09 14-II. Allegro, molto ritmico
DR13 -3.19 dB -23.89 dB 4:36 15-Aria for Philip (Revised 2019 Version)
DR15 -2.55 dB -26.22 dB 5:39 16-I. Slow and Sombre
DR14 -5.92 dB -27.75 dB 2:28 17-II. Slowly, with a Sense of Desolation
DR11 -2.00 dB -20.70 dB 0:51 18-III. Faster
DR12 -10.61 dB -35.82 dB 2:11 19-IV. Cadenza
DR13 -0.91 dB -20.81 dB 5:28 20-V. Fast, with Energy
––––––––––––––––––––––––––––––––––––––––

Number of tracks: 20
Official DR value: DR14

Samplerate: 96000 Hz
Channels: 2
Bits per sample: 24
Bitrate: 2530 kbps
Codec: FLAC
================================================================================


Thanks to the Original customer.