Tags
Language
Tags

Mylene Farmer - Monkey Me (2022)

Posted By: v3122
Mylene Farmer - Monkey Me (2022)

Mylene Farmer - Monkey Me (2022)
FLAC (Tracks) 24-bit/48 kHz | Official Digital Download | Time: 00:53:27
Pop, Synth-Pop, Instrumental | Stuffed Monkey | ~ 679 Mb

~ Instrumental Version ~

Monkey Me is the ninth studio album by French singer-songwriter Mylène Farmer, and her 18th album overall. Preceded by the lead single "À l'ombre", which peaked at number-one in France, the album was released on 3 December 2012. Despite mixed reviews from critics, it entered the French album chart at number one selling almost 150,000 copies in its first week. The album was certified 3× Platinum within its first month of release in France.

The album was supported by the sold-out Timeless tour the following year…

~ wiki
Mylene Farmer - Monkey Me (2022):

Tracklist:

01. Elle a dit (Instrumental Version) (03:50)
02. À l'ombre (Instrumental Version) (04:50)
03. Monkey Me (Instrumental Version) (04:13)
04. Tu ne le dis pas (Instrumental Version) (04:22)
05. Love Dance (Instrumental Version) (04:05)
06. Quand (Instrumental Version) (04:07)
07. J'ai essayé de vivre… (Instrumental Version) (04:40)
08. Ici-bas (Instrumental Version) (04:33)
09. A-t-on jamais (Instrumental Version) (03:47)
10. Nuit d'hiver (Instrumental Version) (05:22)
11. À force de… (Instrumental Version) (04:08)
12. Je te dis tout (Instrumental Version) (05:30)

foobar2000 1.6.6 / Dynamic Range Meter 1.1.1
log date: 2022-06-05 10:51:57

––––––––––––––––––––––––––––––––––––––––
Analyzed: Mylène Farmer / Monkey Me
––––––––––––––––––––––––––––––––––––––––

DR Peak RMS Duration Track
––––––––––––––––––––––––––––––––––––––––
DR5 -0.10 dB -7.71 dB 3:51 01-Elle a dit (Instrumental Version)
DR6 -0.10 dB -7.66 dB 4:51 02-À l'ombre (Instrumental Version)
DR5 -0.10 dB -7.56 dB 4:14 03-Monkey Me (Instrumental Version)
DR5 -0.10 dB -6.55 dB 4:22 04-Tu ne le dis pas (Instrumental Version)
DR4 -0.10 dB -6.71 dB 4:06 05-Love Dance (Instrumental Version)
DR6 -0.10 dB -8.84 dB 4:08 06-Quand (Instrumental Version)
DR6 -0.10 dB -8.64 dB 4:40 07-J'ai essayé de vivre… (Instrumental Version)
DR5 -0.10 dB -6.43 dB 4:33 08-Ici-bas (Instrumental Version)
DR5 -0.10 dB -8.29 dB 3:47 09-A-t-on jamais (Instrumental Version)
DR4 -0.10 dB -5.75 dB 5:23 10-Nuit d'hiver (Instrumental Version)
DR5 -0.10 dB -8.16 dB 4:09 11-À force de… (Instrumental Version)
DR6 -0.10 dB -9.36 dB 5:31 12-Je te dis tout (Instrumental Version)
––––––––––––––––––––––––––––––––––––––––

Number of tracks: 12
Official DR value: DR5
Samplerate: 48000 Hz
Channels: 2
Bits per sample: 24
Bitrate: 1588 kbps
Codec: FLAC

All thanks go to the original releaser

Mylene Farmer in my Blog

Download Mylene Farmer - Monkey Me (2022):