Naoko Yoshino - Harp Concertos (2015) [TR24][OF]

Posted By: SERTiL
Naoko Yoshino - Harp Concertos (2015) [TR24][OF]

Naoko Yoshino - Harp Concertos
Classical | FLAC (tracks) 24-bit/96 kHz | 56:05 min | 978 MB | Digital booklet
Label: Aparté | Tracks: 09 | Rls.date: 2015

The Japanese harpist Naoko Yoshino has performed with orchestras such as the Berliner Philharmoniker, Concentus Musicus in Vienna, Philadelphia, Leipzig, or Zürich - which such illustrious names as Harnoncourt, Menuhin, Mehta, Ozawa, Blomstedt, Kremer, Hagen, Rampal… Upon their first meeting in 2013, Naoko felt as if she had found her 'musical soul mate' in Roberto Forés Veses and the Orchestre d Auvergne. This recording is the result of their special relationship and includes works which are some of the most beautiful of the harp repertoire.

TRACKLIST
1. Concierto de Aranjuez for harp and orchestra, Op. 30: I. Allegro con spirito (5:48)
2. Concierto de Aranjuez for harp and orchestra, Op. 30: II. Adagio (10:53)
3. Concierto de Aranjuez for harp and orchestra, Op. 30: III. Allegro gentile (5:05)
4. Concertino for harp and chamber orchestra, Op. 93: I. Moderato (quasi Passacaglia) (5:59)
5. Concertino for harp and chamber orchestra, Op. 93: II. Andante quasi Recitativo (3:54)
6. Concertino for harp and chamber orchestra, Op. 93: III. Finale spagnolo (Ritmo de jota) (5:27)
7. Danse sacrée et danse profane, L. 103: I. Danse sacrée (5:00)
8. Danse sacrée et danse profane, L. 103: II. Danse profane (5:02)
9. Tema y variaciones for harp and orchestra, Op. 100 (8:57)

foobar2000 1.3.7 / Замер динамического диапазона (DR) 1.1.1
Дата отчёта: 2017-02-08 16:51:26

––––––––––––––––––––––––––––––––––––––––
Анализ: Naoko Yoshino, Orchestre d'Auvergne and Roberto Forés Veses / Harp Concertos (1-3)
Naoko Yoshino, Roberto Forés Veses and Orchestre d'Auvergne / Harp Concertos (4-9)
––––––––––––––––––––––––––––––––––––––––

DR Пики RMS Продолжительность трека
––––––––––––––––––––––––––––––––––––––––
DR14 -0.10 дБ -18.49 дБ 5:06 3-Concierto de Aranjuez for harp and orchestra, Op. 30: III. Allegro gentile
DR13 -0.85 дБ -18.89 дБ 3:55 5-Concertino for harp and chamber orchestra, Op. 93: II. Andante quasi Recitativo
DR12 -0.10 дБ -17.80 дБ 5:02 8-Danse sacrée et danse profane, L. 103: II. Danse profane
DR12 -0.10 дБ -16.57 дБ 5:48 1-Concierto de Aranjuez for harp and orchestra, Op. 30: I. Allegro con spirito
DR13 -0.10 дБ -18.96 дБ 10:54 2-Concierto de Aranjuez for harp and orchestra, Op. 30: II. Adagio
DR13 -0.10 дБ -17.28 дБ 6:00 4-Concertino for harp and chamber orchestra, Op. 93: I. Moderato (quasi Passacaglia)
DR13 -0.10 дБ -17.44 дБ 5:28 6-Concertino for harp and chamber orchestra, Op. 93: III. Finale spagnolo (Ritmo de jota)
DR14 -2.36 дБ -22.50 дБ 5:01 7-Danse sacrée et danse profane, L. 103: I. Danse sacrée
DR13 -0.10 дБ -17.72 дБ 8:57 9-Tema y variaciones for harp and orchestra, Op. 100
––––––––––––––––––––––––––––––––––––––––

Количество треков: 9
Реальные значения DR: DR13

Частота: 96000 Гц
Каналов: 2
Разрядность: 24
Битрейт: 2487 кбит/с
Кодек: FLAC
================================================================================


Thanks to the Original customer.