Tags
Language
Tags

Nazareth - Expect No Mercy (1977/2021)

Posted By: v3122
Nazareth - Expect No Mercy (1977/2021)

Nazareth - Expect No Mercy (1977/2021)
FLAC (Tracks) 24-bit/96 kHz | Official Digital Download | Time: 00:35:32
Hard Rock | Label: A&M Records | ~ 801 Mb

On this 1977 album, Nazareth makes a full-blooded return to the hard rock sound they had neglected since their success with Hair of the Dog. The result is a potent, driving slab of hard rock that will please Nazareth fans and devotees of 1970s hard rock alike. The album sets its frenzied tone right off the bat with its title track, a blistering rocker that features Dan McCafferty spitting out a sharp-edged vocal about life's cruelty over a series of fast and relentless guitar riffs. The remainder of the album prominently features a similarly brutal string of rockers: standouts include "Revenge Is Sweet," a paean to getting even that combines chugging guitar riffs with a stomping beat, and "Gimme What's Mine," a fierce declaration of dominance that layers Southern rock-styled riffs over a churning bassline. Despite this preponderance of hard rocking tunes, Expect No Mercy isn't just a guitar-fest. It also takes time to explore country-rock (there is an excellent, rocked-up cover of the country standard "Busted" as well as a honky tonk-style original called "Place in Your Heart") and even a little bit of funk (a hard-grooving slice of funk-rock fusion called "New York Broken Toy"). The album never takes the daring stylistic chance within the hard rock formula that distinguished Razamanaz or Hair of the Dog, but this is minor quibble in light of the album's high levels of consistency and quality. In short, Expect No Mercy is a treat for Nazareth fans and a solid listen for any hard rock fan who wants a good indication of the group's style.

by Donald A. Guarisco, allmusic
Nazareth - Expect No Mercy (1977/2021):

Tracklist:

01. Expect No Mercy (3:26)
02. Gone Dead Train (3:45)
03. Shot Me Down (3:30)
04. Revenge Is Sweet (3:06)
05. Gimme What's Mine (3:47)
06. Kentucky Fried Blues (3:14)
07. New York Broken Toy (3:37)
08. Busted (3:41)
09. Place In Your Heart (3:01)
10. All The King's Horses (4:25)

Dan McCafferty - vocals
Darrell Sweet - drums
Pete Agnew - bass guitar, guitar
Manny Charlton - guitar, producer


foobar2000 1.6.5 / Dynamic Range Meter 1.1.1

––––––––––––––––––––––––––––––––––––––––
Analyzed: Nazareth / Expect No Mercy
––––––––––––––––––––––––––––––––––––––––

DR Peak RMS Duration Track
––––––––––––––––––––––––––––––––––––––––
DR11 -2.11 dB -14.48 dB 3:26 01-Expect No Mercy
DR11 -2.19 dB -14.42 dB 3:45 02-Gone Dead Train
DR11 -1.95 dB -14.54 dB 3:30 03-Shot Me Down
DR12 -1.04 dB -14.59 dB 3:06 04-Revenge Is Sweet
DR10 -2.20 dB -14.61 dB 3:47 05-Gimme What's Mine
DR11 -2.34 dB -14.66 dB 3:14 06-Kentucky Fried Blues
DR11 -1.69 dB -14.48 dB 3:37 07-New York Broken Toy
DR12 -0.50 dB -14.91 dB 3:41 08-Busted
DR11 -2.22 dB -14.64 dB 3:01 09-Place In Your Heart
DR12 -1.20 dB -14.81 dB 4:25 10-All The King's Horses
––––––––––––––––––––––––––––––––––––––––

Number of tracks: 10
Official DR value: DR11

Samplerate: 96000 Hz
Channels: 2
Bits per sample: 24
Bitrate: 3116 kbps
Codec: FLAC

All thanks go to the original releaser

Nazareth in my Blog

Download Nazareth - Expect No Mercy (1977/2021):