Neil Young - Neil Young Archives Vol. II (1972 - 1976) (2020) [Official Digital Download 24/192]

Posted By: SERTiL
Neil Young - Neil Young Archives Vol. II (1972 - 1976) (2020) [Official Digital Download 24/192]

Neil Young - Neil Young Archives Vol. II (1972 - 1976) (2020)
FLAC (tracks) 24-bit/192 kHz | Time - 08:44:57 | 18.6 GB
Studio Master, Official Digital Download | Artwork: Front Cover

This is the second volume of theNeil Young Archives series of box sets produced by Neil Young. A definitive, comprehensive, chronological record of his entire body of released work.This box set covers the extremely productive period from 1972 through 1976. A prolific era for Neil when he released several classic albums including On The Beach, Tonight’s The NightandZuma. Homegrown, just released, is part of this history as well.The box set features a total of 131 tracks of which 62 are either unreleased songs or unreleased alternate versions, different mixes, rare or live tracks. The retail edition of the box set will be available on March 5th 2021, available to pre-order via Neil Young’s Greedy Hand web store and all retailers. This version of the box set includes the same 10 CDs and oversized fold-out ArchivesPoster as the deluxe edition, plus a 24-page booklet (replacing the hard-bound book). The retail edition is packaged in a cube-shaped slip-case box, smaller than the deluxe edition box. The 10 CDs, each in its own custom sleeve feature a total of 131 tracks from Neil Young solo, plus with bands Crazy Horse, The Stray Gators, The Santa Monica Flyers, the Stills/Young Band and Crosby, Stills, Nash & Young.

Tracklist:
1. Letter from 'Nam (3:35)
2. Monday Morning (2:47)
3. The Bridge (2:56)
4. Time Fades Away (12/15/72) (4:21)
5. Come Along and Say You Will (2:28)
6. Goodbye Christians on the Shore (5:24)
7. The Last Trip to Tulsa (4:19)
8. The Loner (Live) (3:54)
9. Sweet Joni (2:42)
10. Yonder Stands the Sinner (3:19)
11. L.A. (Story) (4:02)
12. L.A. (Live) (3:35)
13. Human Highway (6/29/73) (3:04)
14. Here We Are in the Years (Live from Tuscaloosa) (3:57)
15. After the Gold Rush (Live from Tuscaloosa) (4:42)
16. Out on the Weekend (Live from Tuscaloosa) (5:29)
17. Harvest (Live from Tuscaloosa) (4:13)
18. Old Man (Live from Tuscaloosa) (4:14)
19. Heart of Gold (Live from Tuscaloosa) (3:48)
20. Time Fades Away (Live from Tuscaloosa) (6:10)
21. Lookout Joe (Live from Tuscaloosa) (5:00)
22. New Mama (Live from Tuscaloosa) (3:00)
23. Alabama (Live from Tuscaloosa) (3:51)
24. Don't Be Denied (Live from Tuscaloosa) (8:09)
25. Speakin' Out Jam (5:01)
26. Everybody's Alone (2:44)
27. Tired Eyes (4:41)
28. Tonight's the Night (4:43)
29. Mellow My Mind (3:11)
30. World on a String (2:27)
31. Speakin' Out (4:57)
32. Raised on Robbery (3:37)
33. Roll Another Number (For the Road) (3:05)
34. New Mama (2:10)
35. Albuquerque (4:02)
36. Tonight's the Night - Pt. II (5:18)
37. Intro (Live from The Roxy) (0:43)
38. Tonight's the Night (Live from The Roxy) (6:56)
39. Roll Out the Barrel (Live from The Roxy) (0:52)
40. Mellow My Mind (Live from The Roxy) (3:11)
41. World on a String (Live from The Roxy) (2:43)
42. Band Intro (Live from The Roxy) (1:23)
43. Speakin' Out (Live from The Roxy) (6:37)
44. Candy Barr Rap (Live from The Roxy) (0:31)
45. Albuquerque (Live from The Roxy) (3:51)
46. Perry Como Rap (Live from The Roxy) (0:17)
47. New Mama (Live from The Roxy) (2:29)
48. David Geffen Rap (Live from The Roxy) (0:36)
49. Roll Another Number (For the Road) [Live from The Roxy] (4:48)
50. Candy Barr 2 Rap (Live from The Roxy) (0:20)
51. Tired Eyes (Live from The Roxy) (7:03)
52. Tonight's the Night - Pt. II (Live from The Roxy) (6:38)
53. Walk On (Live from The Roxy) (3:36)
54. The Losing End (Live from The Roxy) (6:20)
55. Outro (Live from The Roxy) (0:34)
56. Winterlong (3:08)
57. Walk On (2:42)
58. Bad Fog of Loneliness (2:16)
59. Borrowed Tune (3:25)
60. Traces (12/5/73) (2:11)
61. For the Turnstiles (3:16)
62. Ambulance Blues (8:59)
63. Motion Pictures (For Carrie) (4:24)
64. On the Beach (7:03)
65. Revolution Blues (4:06)
66. Vampire Blues (4:14)
67. Greensleeves (2:00)
68. Love/Art Blues (6/15/74) (2:27)
69. Through My Sails (3:30)
70. Homefires (2:31)
71. Pardon My Heart (6/16/74) (3:51)
72. Hawaiian Sunrise (2:47)
73. L.A. Girls and Ocean Boys (2:29)
74. Pushed It Over the End (7:45)
75. On the Beach (8/28/74) (7:33)
76. Vacancy (11/4/74) (3:36)
77. One More Sign (3:04)
78. Frozen Man (3:02)
79. Give Me Strength (3:05)
80. Bad News Comes to Town (2:58)
81. Changing Highways (2:03)
82. Love/Art Blues (12/10/74) (2:29)
83. The Old Homestead (7:42)
84. Daughters (3:30)
85. Deep Forbidden Lake (3:43)
86. Love/Art Blues (12/31/74) (2:40)
87. Separate Ways (3:33)
88. Try (2:49)
89. Mexico (1:41)
90. Love Is A Rose (2:17)
91. Homegrown (2:48)
92. Florida (2:58)
93. Kansas (6/12/75) (2:12)
94. We Don't Smoke It No More (4:51)
95. White Line (3:14)
96. Vacancy (3:59)
97. Little Wing (2:12)
98. Star of Bethlehem (2:48)
99. Ride My Llama (3:44)
100. Cortez the Killer (7:32)
101. Don't Cry No Tears (2:37)
102. Born to Run (3:19)
103. Barstool Blues (3:02)
104. Danger Bird (6:55)
105. Stupid Girl (3:11)
106. Kansas (3:35)
107. Powderfinger (7:16)
108. Hawaii (4:26)
109. Drive Back (3:34)
110. Lookin' for a Love (3:19)
111. Pardon My Heart (3:50)
112. Too Far Gone (2:42)
113. Pocahontas (3:31)
114. No One Seems to Know (2:28)
115. Like a Hurricane (8:19)
116. Lotta Love (2:39)
117. Look Out for My Love (4:07)
118. Separate Ways (2/3/76) (5:25)
119. Let it Shine (4:46)
120. Long May You Run (3:56)
121. Fontainebleau (4:00)
122. Traces (2/8/76) (3:07)
123. Mellow My Mind (Live - 3/5/76) (2:42)
124. Midnight on the Bay (Live - 3/30/76) (3:09)
125. Stringman (3:31)
126. Mediterranean (2:36)
127. Ocean Girl (3:23)
128. Midnight on the Bay (4/14/76) (4:02)
129. Human Highway (4/15/76) (3:01)
130. The Old Laughing Lady (Live from Hammersmith Odeon, London) (5:55)
131. After the Gold Rush (Live from Hammersmith Odeon, London) (4:29)
132. Too Far Gone (Live from Hammersmith Odeon, London) (3:17)
133. Old Man (Live from Hammersmith Odeon, London) (3:48)
134. Stringman (Live from Hammersmith Odeon, London) (3:45)
135. Don't Cry No Tears (Live from Hammersmith Odeon, London) (3:12)
136. Cowgirl in the Sand (Live from Hammersmith Odeon, London) (4:56)
137. Lotta Love (Live from Hammersmith Odeon, London) (2:57)
138. Drive Back (Live from Hammersmith Odeon, London) (4:37)
139. Cortez the Killer (Live from Hammersmith Odeon, London) (7:04)

foobar2000 1.6 / Dynamic Range Meter 1.1.1
log date: 2020-11-21 15:32:56

––––––––––––––––––––––––––––––––––––––––
Analyzed: Crosby, Stills, Nash & Young / Neil Young Archives Vol. II (1972 - 1976) (1-3)
Neil Young with the Santa Monica Flyers / Neil Young Archives Vol. II (1972 - 1976) (4-34)
Neil Young, Crazy Horse / Neil Young Archives Vol. II (1972 - 1976) (35-67)
Neil Young, Robbie Robertson / Neil Young Archives Vol. II (1972 - 1976) (68)
Neil Young, Stray Gators / Neil Young Archives Vol. II (1972 - 1976) (69-85)
Neil Young / Neil Young Archives Vol. II (1972 - 1976) (86-134)
The Stills-Young Band / Neil Young Archives Vol. II (1972 - 1976) (135-139)
––––––––––––––––––––––––––––––––––––––––

DR Peak RMS Duration Track
––––––––––––––––––––––––––––––––––––––––
DR13 0.00 dB -16.26 dB 3:04 13-Human Highway (6/29/73)
DR12 -0.20 dB -14.98 dB 7:45 74-Pushed It Over the End
DR12 0.00 dB -15.02 dB 7:33 75-On the Beach (8/28/74)
DR13 -0.21 dB -16.68 dB 5:01 25-Speakin' Out Jam
DR11 0.00 dB -13.64 dB 2:44 26-Everybody's Alone
DR12 0.00 dB -15.16 dB 4:41 27-Tired Eyes
DR12 0.00 dB -14.94 dB 4:43 28-Tonight's the Night
DR11 0.00 dB -13.22 dB 3:11 29-Mellow My Mind
DR11 0.00 dB -13.62 dB 2:27 30-World on a String
DR12 0.00 dB -14.84 dB 4:57 31-Speakin' Out
DR10 0.00 dB -12.26 dB 3:37 32-Raised on Robbery
DR11 0.00 dB -13.76 dB 3:05 33-Roll Another Number (For the Road)
DR12 -4.04 dB -21.37 dB 2:10 34-New Mama
DR11 0.00 dB -13.96 dB 4:02 35-Albuquerque
DR12 0.00 dB -14.86 dB 5:18 36-Tonight's the Night - Pt. II
DR14 -3.42 dB -21.93 dB 0:43 37-Intro (Live from The Roxy)
DR12 -0.61 dB -16.70 dB 6:56 38-Tonight's the Night (Live from The Roxy)
DR11 -2.58 dB -19.63 dB 0:52 39-Roll Out the Barrel (Live from The Roxy)
DR11 -2.14 dB -15.56 dB 3:11 40-Mellow My Mind (Live from The Roxy)
DR11 -1.69 dB -15.55 dB 2:43 41-World on a String (Live from The Roxy)
DR15 -4.07 dB -25.13 dB 1:23 42-Band Intro (Live from The Roxy)
DR12 -0.53 dB -15.81 dB 6:37 43-Speakin' Out (Live from The Roxy)
DR12 -10.52 dB -29.61 dB 0:31 44-Candy Barr Rap (Live from The Roxy)
DR12 -1.91 dB -16.66 dB 3:51 45-Albuquerque (Live from The Roxy)
DR8 -8.75 dB -29.64 dB 0:17 46-Perry Como Rap (Live from The Roxy)
DR16 -1.17 dB -19.63 dB 2:29 47-New Mama (Live from The Roxy)
DR12 -15.25 dB -32.18 dB 0:36 48-David Geffen Rap (Live from The Roxy)
DR12 -1.27 dB -16.40 dB 4:48 49-Roll Another Number (For the Road) [Live from The Roxy]
DR10 -9.44 dB -27.50 dB 0:20 50-Candy Barr 2 Rap (Live from The Roxy)
DR13 0.00 dB -17.97 dB 7:03 51-Tired Eyes (Live from The Roxy)
DR12 -0.35 dB -16.37 dB 6:38 52-Tonight's the Night - Pt. II (Live from The Roxy)
DR11 0.00 dB -13.52 dB 3:36 53-Walk On (Live from The Roxy)
DR11 -0.81 dB -13.89 dB 6:20 54-The Losing End (Live from The Roxy)
DR15 -6.64 dB -30.60 dB 0:34 55-Outro (Live from The Roxy)
DR9 0.00 dB -11.41 dB 3:08 56-Winterlong
DR10 -1.14 dB -13.86 dB 2:42 57-Walk On
DR10 0.00 dB -12.77 dB 2:16 58-Bad Fog of Loneliness
DR13 -0.01 dB -14.62 dB 2:03 81-Changing Highways
DR13 -0.20 dB -15.03 dB 3:44 99-Ride My Llama
DR12 0.00 dB -14.45 dB 7:32 100-Cortez the Killer
DR11 -1.64 dB -14.11 dB 2:37 101-Don't Cry No Tears
DR12 -0.94 dB -14.76 dB 3:19 102-Born to Run
DR10 -2.38 dB -13.74 dB 3:02 103-Barstool Blues
DR11 -0.30 dB -14.69 dB 6:55 104-Danger Bird
DR13 -0.07 dB -14.75 dB 3:11 105-Stupid Girl
DR14 -0.46 dB -16.00 dB 3:35 106-Kansas
DR14 -0.20 dB -16.07 dB 7:16 107-Powderfinger
DR11 -0.22 dB -13.08 dB 4:26 108-Hawaii
DR12 0.00 dB -14.13 dB 3:34 109-Drive Back
DR11 -1.22 dB -15.20 dB 3:19 110-Lookin' for a Love
DR13 0.00 dB -17.03 dB 3:50 111-Pardon My Heart
DR13 -3.72 dB -21.01 dB 2:42 112-Too Far Gone
DR11 -0.50 dB -14.59 dB 3:31 113-Pocahontas
DR13 -1.70 dB -17.86 dB 2:28 114-No One Seems to Know
DR11 0.00 dB -12.20 dB 8:19 115-Like a Hurricane
DR11 -1.70 dB -15.43 dB 2:39 116-Lotta Love
DR13 0.00 dB -16.19 dB 4:07 117-Look Out for My Love
DR12 -1.49 dB -18.86 dB 5:55 130-The Old Laughing Lady (Live from Hammersmith Odeon, London)
DR12 -1.95 dB -18.47 dB 4:29 131-After the Gold Rush (Live from Hammersmith Odeon, London)
DR13 -2.67 dB -19.36 dB 3:17 132-Too Far Gone (Live from Hammersmith Odeon, London)
DR13 -0.73 dB -17.83 dB 3:48 133-Old Man (Live from Hammersmith Odeon, London)
DR14 0.00 dB -20.00 dB 3:45 134-Stringman (Live from Hammersmith Odeon, London)
DR12 0.00 dB -13.86 dB 3:12 135-Don't Cry No Tears (Live from Hammersmith Odeon, London)
DR12 0.00 dB -14.84 dB 4:56 136-Cowgirl in the Sand (Live from Hammersmith Odeon, London)
DR12 -1.98 dB -16.55 dB 2:57 137-Lotta Love (Live from Hammersmith Odeon, London)
DR12 -0.38 dB -14.42 dB 4:37 138-Drive Back (Live from Hammersmith Odeon, London)
DR12 -0.44 dB -14.67 dB 7:04 139-Cortez the Killer (Live from Hammersmith Odeon, London)
DR13 -3.31 dB -20.56 dB 3:14 95-White Line
DR12 0.00 dB -12.77 dB 4:21 04-Time Fades Away (12/15/72)
DR12 0.00 dB -14.52 dB 2:28 05-Come Along and Say You Will
DR14 -0.86 dB -16.75 dB 5:24 06-Goodbye Christians on the Shore
DR11 0.00 dB -12.21 dB 4:19 07-The Last Trip to Tulsa
DR11 0.00 dB -13.32 dB 3:54 08-The Loner (Live)
DR11 0.00 dB -14.22 dB 3:19 10-Yonder Stands the Sinner
DR13 -3.59 dB -21.78 dB 3:57 14-Here We Are in the Years (Live from Tuscaloosa)
DR15 -3.03 dB -22.00 dB 4:42 15-After the Gold Rush (Live from Tuscaloosa)
DR14 -0.14 dB -17.24 dB 5:29 16-Out on the Weekend (Live from Tuscaloosa)
DR14 -1.54 dB -18.36 dB 4:13 17-Harvest (Live from Tuscaloosa)
DR13 -2.31 dB -19.06 dB 4:14 18-Old Man (Live from Tuscaloosa)
DR13 -2.61 dB -18.44 dB 3:48 19-Heart of Gold (Live from Tuscaloosa)
DR9 -2.35 dB -13.50 dB 6:10 20-Time Fades Away (Live from Tuscaloosa)
DR11 -0.96 dB -14.06 dB 5:00 21-Lookout Joe (Live from Tuscaloosa)
DR10 -1.37 dB -13.86 dB 3:00 22-New Mama (Live from Tuscaloosa)
DR11 -0.83 dB -14.28 dB 3:51 23-Alabama (Live from Tuscaloosa)
DR11 -1.33 dB -15.77 dB 8:09 24-Don't Be Denied (Live from Tuscaloosa)
DR11 0.00 dB -15.08 dB 3:35 01-Letter from 'Nam
DR12 -0.28 dB -15.73 dB 2:47 02-Monday Morning
DR11 -0.01 dB -15.74 dB 2:56 03-The Bridge
DR11 -2.83 dB -17.85 dB 2:42 09-Sweet Joni
DR15 -4.36 dB -24.70 dB 4:02 11-L.A. (Story)
DR13 0.00 dB -19.35 dB 3:35 12-L.A. (Live)
DR15 -4.03 dB -24.66 dB 3:25 59-Borrowed Tune
DR12 0.00 dB -15.37 dB 2:11 60-Traces (12/5/73)
DR14 0.00 dB -18.42 dB 3:16 61-For the Turnstiles
DR13 0.00 dB -14.96 dB 8:59 62-Ambulance Blues
DR13 0.00 dB -15.96 dB 4:24 63-Motion Pictures (For Carrie)
DR11 0.00 dB -13.22 dB 7:03 64-On the Beach
DR12 0.00 dB -13.25 dB 4:06 65-Revolution Blues
DR13 0.00 dB -15.63 dB 4:14 66-Vampire Blues
DR13 -0.70 dB -16.34 dB 2:00 67-Greensleeves
DR11 -3.37 dB -17.48 dB 2:27 68-Love/Art Blues (6/15/74)
DR10 -5.08 dB -17.81 dB 3:30 69-Through My Sails
DR11 -3.60 dB -16.95 dB 2:31 70-Homefires
DR13 -1.30 dB -18.84 dB 3:51 71-Pardon My Heart (6/16/74)
DR11 -3.26 dB -17.26 dB 2:47 72-Hawaiian Sunrise
DR13 -4.59 dB -19.74 dB 2:29 73-L.A. Girls and Ocean Boys
DR14 -0.01 dB -17.17 dB 3:36 76-Vacancy (11/4/74)
DR12 -4.61 dB -19.40 dB 3:04 77-One More Sign
DR13 -0.72 dB -18.18 dB 3:02 78-Frozen Man
DR12 -1.70 dB -16.22 dB 3:05 79-Give Me Strength
DR13 -1.41 dB -19.28 dB 2:58 80-Bad News Comes to Town
DR11 -1.50 dB -14.19 dB 2:29 82-Love/Art Blues (12/10/74)
DR14 -2.44 dB -19.25 dB 7:42 83-The Old Homestead
DR12 -1.73 dB -17.33 dB 3:30 84-Daughters
DR13 -0.35 dB -17.18 dB 3:43 85-Deep Forbidden Lake
DR11 -0.01 dB -14.90 dB 2:40 86-Love/Art Blues (12/31/74)
DR17 -0.34 dB -20.42 dB 3:33 87-Separate Ways
DR14 -1.03 dB -18.76 dB 2:49 88-Try
DR11 -6.28 dB -21.80 dB 1:41 89-Mexico
DR11 -4.24 dB -18.60 dB 2:17 90-Love Is A Rose
DR13 -2.01 dB -17.74 dB 2:48 91-Homegrown
DR11 -9.83 dB -26.28 dB 2:58 92-Florida
DR11 -9.35 dB -24.85 dB 2:12 93-Kansas (6/12/75)
DR13 -0.76 dB -16.98 dB 4:51 94-We Don't Smoke It No More
DR12 -0.70 dB -15.37 dB 3:59 96-Vacancy
DR11 -5.51 dB -22.44 dB 2:12 97-Little Wing
DR12 -4.63 dB -19.84 dB 2:48 98-Star of Bethlehem
DR16 -0.99 dB -20.16 dB 2:42 123-Mellow My Mind (Live - 3/5/76)
DR13 -1.37 dB -18.46 dB 3:09 124-Midnight on the Bay (Live - 3/30/76)
DR13 -1.20 dB -18.90 dB 3:31 125-Stringman
DR11 -5.94 dB -21.72 dB 2:36 126-Mediterranean
DR12 -0.20 dB -14.95 dB 3:23 127-Ocean Girl
DR14 -0.20 dB -17.57 dB 4:02 128-Midnight on the Bay (4/14/76)
DR14 -0.30 dB -17.98 dB 3:01 129-Human Highway (4/15/76)
DR13 -0.20 dB -15.69 dB 5:25 118-Separate Ways (2/3/76)
DR12 -0.20 dB -14.18 dB 4:46 119-Let it Shine
DR12 -0.20 dB -14.68 dB 3:56 120-Long May You Run
DR11 -0.20 dB -14.22 dB 4:00 121-Fontainebleau
DR12 -0.20 dB -13.87 dB 3:07 122-Traces (2/8/76)
––––––––––––––––––––––––––––––––––––––––

Number of tracks: 139
Official DR value: DR12

Samplerate: 192000 Hz
Channels: 2
Bits per sample: 24
Bitrate: 4752 kbps
Codec: FLAC
================================================================================


Thanks to the Original customer.