Tags
Language
Tags

Neil Young - Greatest Hits (2004/2021) [Official Digital Download 24/96]

Posted By: pyatak
Neil Young - Greatest Hits (2004/2021) [Official Digital Download 24/96]

Neil Young - Greatest Hits (2004/2021) [Official Digital Download 24/96]
FLAC (tracks) 24-bit/96 kHz | Front Cover | Time - 77:10 minutes | 1,58 GB
Rock | Label: Warner Records, Official Digital Download

His first ever greatest-hits collection, Neil Young's Greatest Hits is a long-awaited retrospective from one of rock's most influential and enduring singer-songwriters. With 16 selections spanning his entire career since 1969, Greatest Hits features some of the greatest hits of rock'n'roll, period.

One question would be: What took him so long? After all, a contemporary like Van Morrison has sold boatloads of his single-disc best-of set to buyers wary of diving into that deep catalog without a primer to get them started. So three and a half decades into his solo career, Neil Young finally delivers his version of that most modest of albums–the pre-holiday "hits" overview. What's surprising, coming from such a proud maverick, is its conventionality. Granted, the original master mixes are a boon for fans, but otherwise, there's not much here for loyalists who quite likely already possess the original "Like a Hurricane" on a couple of albums, as well as a handful of live interpretations scanning the years. Since Young cracked the Top 10 only once (1972's "Heart of Gold"), this set is built around concert staples as "Cinnamon Girl," "Rockin' in the Free World," and "Hey, Hey, My My" rather than chart favorites. Despite Young's honorable standing as a still-vital graybeard, the disc is skewed heavily toward his early work, shortchanging some mighty productive recent years. Peripheral fans may find this set of interest, but faithful followers are better advised to investigate the DVD version, which, at least, includes videos, photos, lyrics, and Web links. –Steven Stolder

TRACKLIST

01. Neil Young - Down By the River
02. Neil Young - Cowgirl In the Sand
03. Neil Young - Cinnamon Girl
04. Neil Young - Helpless
05. Neil Young - After the Gold Rush
06. Neil Young - Only Love Can Break Your Heart
07. Neil Young - Southern Man
08. Neil Young - Ohio
09. Neil Young - The Needle and the Damage Done
10. Neil Young - Old Man
11. Neil Young - Heart of Gold
12. Neil Young - Like a Hurricane
13. Neil Young - Comes a Time
14. Neil Young - Hey Hey, My My (Into the Black) [Live]
15. Neil Young - Rockin' In the Free World
16. Neil Young - Harvest Moon

foobar2000 1.6.2 / Dynamic Range Meter 1.1.1
log date: 2021-02-09 09:47:14

––––––––––––––––––––––––––––––––––––––––
Analyzed: Neil Young / Greatest Hits
––––––––––––––––––––––––––––––––––––––––

DR Peak RMS Duration Track
––––––––––––––––––––––––––––––––––––––––
DR10 -1.15 dB -12.89 dB 9:19 01-Down By the River
DR10 -0.97 dB -13.23 dB 10:08 02-Cowgirl In the Sand
DR9 -1.52 dB -12.49 dB 3:02 03-Cinnamon Girl
DR11 -0.74 dB -15.62 dB 3:41 04-Helpless
DR10 -1.89 dB -14.74 dB 3:49 05-After the Gold Rush
DR11 0.00 dB -13.26 dB 3:11 06-Only Love Can Break Your Heart
DR10 -0.02 dB -12.23 dB 5:34 07-Southern Man
DR10 -0.20 dB -12.38 dB 3:02 08-Ohio
DR13 -1.04 dB -18.15 dB 2:13 09-The Needle and the Damage Done
DR12 -0.62 dB -16.61 dB 3:25 10-Old Man
DR12 -0.60 dB -15.14 dB 3:10 11-Heart of Gold
DR11 -0.22 dB -12.66 dB 8:24 12-Like a Hurricane
DR13 -0.01 dB -15.89 dB 3:08 13-Comes a Time
DR11 -0.44 dB -13.67 dB 5:17 14-Hey Hey, My My (Into the Black) [Live]
DR11 0.00 dB -12.38 dB 4:44 15-Rockin' In the Free World
DR12 -0.22 dB -16.10 dB 5:03 16-Harvest Moon
––––––––––––––––––––––––––––––––––––––––

Number of tracks: 16
Official DR value: DR11

Samplerate: 96000 Hz
Channels: 2
Bits per sample: 24
Bitrate: 2711 kbps
Codec: FLAC
================================================================================



Thanks to the Original customer.