Niall Horan - Flicker (Deluxe Edition) (2017) [Official Digital Download 24/96]

Posted By: Pisulik
Niall Horan - Flicker (Deluxe Edition) (2017) [Official Digital Download 24/96]

Niall Horan - Flicker (Deluxe Edition) (2017)
FLAC (tracks) 24-bit/96 kHz | Time - 46:53 minutes | 937 MB
Studio Master, Official Digital Download | Artwork: Front cover

From one direction to five, it’s been fascinating to listen to what the members of One Direction have been doing on their hiatus. And hold your nose if you must but some of it is really good - including Niall Horan’s latest effort. While Harry Styles dabbles in ’70 rock, Louis Tomlinson gets into hard-core EDM, Liam Payne embraces in-the-club-R&B and Zayn Malik explores neo-soul, Flicker finds Horan on the folkier side of pop.

Horan’s solo CD isn’t look-at-me flashy, but his songs are built sturdily and his warm voice is unrushed and unpretentious. “I’ve got a young heart and it’s wild and free,” he sings in one song. Horan seems uninterested in the pyrotechnics of his 1D bandmates, preferring a John Mayer and Ed Sheeran guitar-driven sound. It’s a mature effort from an Irish former boy band boy, who had a hand in writing every song and plays guitar on several.

The 13-track CD opens with the infectious, dance-friendly On the Loose, but that’s not representative of the album. It’s like Horan just wants to show he can put out pure shimmering pop like anyone else and then move on.

Tracklist:

01. On The Loose
02. This Town
03. Seeing Blind
04. Slow Hands
05. Too Much To Ask
06. Paper Houses
07. Since We're Alone
08. Flicker
09. Fire Away
10. You And Me
11. On My Own
12. Mirrors
13. The Tide

foobar2000 1.3.7 / Dynamic Range Meter 1.1.1
log date: 2017-10-20 01:20:39

––––––––––––––––––––––––––––––––––––––––
Analyzed: Niall Horan / Flicker
––––––––––––––––––––––––––––––––––––––––

DR Peak RMS Duration Track
––––––––––––––––––––––––––––––––––––––––
DR7 -0.86 dB -9.57 dB 3:44 01-On the Loose
DR7 -0.46 dB -10.33 dB 3:53 02-This Town
DR7 -0.32 dB -9.95 dB 3:05 03-Seeing Blind
DR7 -0.94 dB -9.59 dB 3:08 04-Slow Hands
DR7 -0.10 dB -8.43 dB 3:43 05-Too Much To Ask
DR7 -1.19 dB -10.21 dB 3:35 06-Paper Houses
DR7 -1.27 dB -9.82 dB 4:03 07-Since We're Alone
DR8 -1.41 dB -12.15 dB 4:18 08-Flicker
DR9 -1.11 dB -11.47 dB 3:26 09-Fire Away
DR7 -1.14 dB -9.93 dB 3:05 10-You and Me
DR7 -0.78 dB -9.33 dB 4:01 11-On My Own
DR6 -1.17 dB -10.25 dB 3:38 12-Mirrors
DR7 -0.71 dB -8.98 dB 3:21 13-The Tide
––––––––––––––––––––––––––––––––––––––––

Number of tracks: 13
Official DR value: DR7

Samplerate: 96000 Hz
Channels: 2
Bits per sample: 24
Bitrate: 2896 kbps
Codec: FLAC
================================================================================


All thanks go to the original releaser