Tags
Language
Tags

Nina & The Hot Spots - Monkey Business (2021) [Official Digital Download]

Posted By:
Nina & The Hot Spots - Monkey Business (2021) [Official Digital Download]

Nina & The Hot Spots - Monkey Business (2021)
FLAC (Tracks) 24-bit/96 kHz | Time: 00:36:29 | 775 Mb
Rockabilly | Label: Rockin'Rollin' Products | Official Digital Download | Artwork: Front

The first longplayer by „Nina & the Hot Spots“ impressively documents which stylistic playground the German quintett feels most comfortable on: From Swing and Rockabilly up to Jump Blues and Jazz, the band confidently pulls out all the stops to explore every aspect of these Rock'n'Roll genres.

The album contains 13 songs, twelve of them self-penned. The punchy and organic sound was recorded live together in one room, mixed by themselves and refinely mastered at venerable Abbey Road Studios London.
Nina & The Hot Spots - Monkey Business (2021):

Tracklist:

01 - Hot Spot Boogie (00:03:29)
02 - This Cat's Sleeping (00:02:32)
03 - Can't Believe (00:02:03)
04 - Monkey Business (00:03:32)
05 - Magic Fire (00:02:36)
06 - Cruisin' Baby (00:02:52)
07 - Pretty Face (00:02:48)
08 - Little Bit (00:03:01)
09 - Mars Marriage (00:02:44)
10 - Everytime (00:02:17)
11 - Barber Bop (00:02:05)
12 - The Day (00:02:39)
13 - Love 'n' Seduce (00:03:44)

foobar2000 1.4.2 / Dynamic Range Meter 1.1.1
log date: 2021-07-03 15:14:20

––––––––––––––––––––––––––––––––––––––––
Analyzed: Nina & The Hot Spots / Monkey Business
––––––––––––––––––––––––––––––––––––––––

DR Peak RMS Duration Track
––––––––––––––––––––––––––––––––––––––––
DR6 -0.20 dB -7.58 dB 3:30 01-Hot Spot Boogie
DR6 -0.20 dB -8.02 dB 2:32 02-This Cat's Sleeping
DR7 -0.20 dB -7.88 dB 2:04 03-Can't Believe
DR7 -0.20 dB -8.99 dB 3:32 04-Monkey Business
DR7 -0.20 dB -9.26 dB 2:36 05-Magic Fire
DR7 -0.20 dB -8.48 dB 2:53 06-Cruisin' Baby
DR7 -0.20 dB -9.30 dB 2:49 07-Pretty Face
DR7 -0.20 dB -8.89 dB 3:02 08-Little Bit
DR7 -0.20 dB -8.08 dB 2:45 09-Mars Marriage
DR7 -0.20 dB -8.26 dB 2:18 10-Everytime
DR7 -0.20 dB -8.52 dB 2:05 11-Barber Bop
DR8 -0.20 dB -9.62 dB 2:40 12-The Day
DR8 -0.20 dB -9.26 dB 3:44 13-Love 'n' Seduce
––––––––––––––––––––––––––––––––––––––––

Number of tracks: 13
Official DR value: DR7

Samplerate: 96000 Hz
Channels: 2
Bits per sample: 24
Bitrate: 2928 kbps
Codec: FLAC

All thanks go to the original releaser

Download Nina & The Hot Spots - Monkey Business (2021):