Nina Simone - Pastel Blues (Acoustic Sounds Series) (1965/2020) [Vinyl Rip 24/192]

Posted By: pyatak
Nina Simone - Pastel Blues (Acoustic Sounds Series) (1965/2020) [Vinyl Rip 24/192]

Nina Simone - Pastel Blues (Acoustic Sounds Series) (1965/2020) [Vinyl Rip 24/192]
Vinil Rip | FLAC (tracks) 24-bit/192 kHz | Front Cover | Time - 35:57 minutes | 1,27 GB
Jazz, Funk, Soul | Label: Verve, Official Digital Download

Pastel Blues features "Be My Husband", written by Simone's husband/manager, Andrew Stroud. She sings a cappella, with handclapping and a hi-hat as her only accompaniment. It later retitled "Be Your Husband". Fans of 1999 film "The Thomas Crown Affair" will recognize the timeless "Sinnerman". Also includes Billie Holiday covers, "Tell Me More and More and Then Some" & "Strange Fruit". Verve Acoustic Sounds Series features all-analog, remastered 180-gram vinyl in deluxe gatefold packaging.

TRACKLIST

01. Nina Simone - Be My Husband
02. Nina Simone - Nobody Knows You When You're Down And Out
03. Nina Simone - End Of The Line
04. Nina Simone - Trouble In Mind
05. Nina Simone - Tell Me More And More And Then Some
06. Nina Simone - Chilly Winds Don't Blow
07. Nina Simone - Ain't No Use
08. Nina Simone - Strange Fruit
09. Nina Simone - Sinnerman

[size=2]https://i.imgur.com/d0koiPbl.jpg
Nina Simone
Pastel Blues
(UMe / B0032266-01) (US)
Originally released as UMe / B0032266-01 on 11 Sep 2020
Lineage: Rega P10 Turntable with Rega P10 PSU > Virgin Vinyl > Rega Apheta 3 Cartridge > PS Audio NuWave Phono Converter > AudioQuest Carbon USB cable > USB-IN
Post Processing: 24bit Audition WAV > ClickRepair 10/0 > Boost volume +3.32/2 DB > Remove DC Bias > 24bit WAV > FLAC

A1. Be My Husband (03:25)
A2. Nobody Knows You When You're Down And Out (02:42)
A3. End Of The Line (02:59)
A4. Trouble In Mind (02:44)
A5. Tell Me More And More And Then Some (03:11)
A6. Chilly Winds Don't Blow (04:02)
B1. Ain't No Use (03:04)
B2. Strange Fruit (03:31)
B3. Sinnerman (10:21)

Total Time and File-Size: 00:35:59, 1.22 GB
Total Replay-Gain Value: +0.05 dB


foobar2000 1.6.2 / Dynamic Range Meter 1.1.1
log date: 2020-12-17 20:01:09

––––––––––––––––––––––––––––––––––––––––
Analyzed: Nina Simone / Pastel Blues
––––––––––––––––––––––––––––––––––––––––

DR Peak RMS Duration Track
––––––––––––––––––––––––––––––––––––––––
DR14 -3.75 dB -21.66 dB 3:25 01-Be My Husband
DR10 -2.74 dB -15.89 dB 2:42 02-Nobody Knows You When You're Down And Out
DR10 -5.17 dB -19.97 dB 2:59 03-End Of The Line
DR10 -2.84 dB -15.87 dB 2:44 04-Trouble In Mind
DR11 -3.98 dB -20.79 dB 3:11 05-Tell Me More And More And Then Some
DR11 -3.03 dB -17.90 dB 4:02 06-Chilly Winds Don't Blow
DR11 -4.70 dB -19.08 dB 3:04 07-Ain't No Use
DR12 -5.18 dB -23.92 dB 3:31 08-Strange Fruit
DR11 -3.97 dB -17.72 dB 10:21 09-Sinnerman
––––––––––––––––––––––––––––––––––––––––

Number of tracks: 9
Official DR value: DR11

Samplerate: 192000 Hz
Channels: 2
Bits per sample: 24
Bitrate: 5003 kbps
Codec: FLAC
================================================================================



Thanks to the Original customer.