Tags
Language
Tags

Nine Inch Nails - The Downward Spiral (Definitive Edition) (1994/2017) [TR24][OF]

Posted By: SERTiL
Nine Inch Nails - The Downward Spiral (Definitive Edition) (1994/2017) [TR24][OF]

Nine Inch Nails - The Downward Spiral (Definitive Edition)
Industrial Rock | FLAC (tracks) 24-bit/96 kHz | 65:00 min | 1.35 GB | Front Cover
Label: Null Corporation | Tracks: 14 | Rls.date: 1994/2017

The Downward Spiral positioned Trent Reznor as industrial's own Phil Spector, painting detailed, layered soundscapes from a wide tonal palette. Not only did he fully integrated the crashing metal guitars of Broken, but several newfound elements – expanded song structures, odd time signatures, shifting arrangements filled with novel sounds, tremendous textural variety – can be traced to the influence of progressive rock. So can the painstaking attention devoted to pacing and contrast – The Downward Spiral is full of striking sonic juxtapositions and sudden about-faces in tone, which make for a fascinating listen. More important than craft in turning Reznor into a full-fledged rock star, however, was his brooding persona. Grunge had the mainstream salivating over melodramatic angst, which had always been Reznor's stock in trade. The left-field hit "Closer" made him a postmodern shaman for the '90s, obsessed with exposing the dark side he saw behind even the most innocuous façades. In fact, his theatrics on The Downward Spiral – all the preening self-absorption and serpentine sexuality – seemed directly descended from Jim Morrison. Yet Reznor's nihilism often seemed like a reaction against some repressively extreme standard of purity, so the depravity he wallowed in didn't necessarily seem that depraved. That's part of the reason why, in spite of its many virtues, The Downward Spiral falls just short of being the masterpiece it wants to be. For one thing, fascination with texture occasionally dissolves the hooky songwriting that fueled Pretty Hate Machine. But more than that, Reznor's unflinching bleakness was beginning to seem like a carefully calibrated posture; his increasing musical sophistication points up the lyrical holding pattern. Having said that, the album ends on an affecting emotional peak – "Hurt" mingles drama and introspection in a way Reznor had never quite managed before. It's evidence of depth behind the charisma that deservedly made him a star. Review by Steve Huey

TRACKLIST
01 - Mr. Self Destruct
02 - Piggy
03 - Heresy
04 - March Of The Pigs
05 - Closer
06 - Ruiner
07 - The Becoming
08 - I Do Not Want This
09 - Big Man With A Gun
10 - A Warm Place
11 - Eraser
12 - Reptile
13 - The Downward Spiral
14 - Hurt

foobar2000 1.3.7 / Замер динамического диапазона (DR) 1.1.1
Дата отчёта: 2016-12-23 21:33:40

––––––––––––––––––––––––––––––––––––––––
Анализ: Nine Inch Nails / The Downward Spiral
––––––––––––––––––––––––––––––––––––––––

DR Пики RMS Продолжительность трека
––––––––––––––––––––––––––––––––––––––––
DR4 -0.02 дБ -8.04 дБ 4:30 1-Mr. Self Destruct
DR6 0.00 дБ -9.58 дБ 4:25 2-Piggy
DR4 -0.02 дБ -5.62 дБ 3:54 3-Heresy
DR5 0.00 дБ -6.42 дБ 2:59 4-March Of The Pigs
DR5 -0.02 дБ -6.92 дБ 6:13 5-Closer
DR4 -0.04 дБ -7.10 дБ 4:58 6-Ruiner
DR6 -0.08 дБ -9.29 дБ 5:31 7-The Becoming
DR4 -0.03 дБ -5.58 дБ 5:41 8-I Do Not Want This
DR4 -0.05 дБ -5.60 дБ 1:36 9-Big Man With A Gun
DR10 -2.95 дБ -16.38 дБ 3:23 10-A Warm Place
DR5 -0.07 дБ -6.96 дБ 4:54 11-Eraser
DR5 -0.04 дБ -7.76 дБ 6:52 12-Reptile
DR6 -0.09 дБ -10.45 дБ 3:59 13-The Downward Spiral
DR7 -0.08 дБ -12.08 дБ 6:12 14-Hurt
––––––––––––––––––––––––––––––––––––––––

Количество треков: 14
Реальные значения DR: DR5

Частота: 96000 Гц
Каналов: 2
Разрядность: 24
Битрейт: 2745 кбит/с
Кодек: FLAC
================================================================================


Thanks to the Original customer.
My Blog mp3, flac & HDtracks