Oasis - Be Here Now (1997/2016) [Official Digital Download]

Posted By: Pisulik
Oasis - Be Here Now (1997/2016) [Official Digital Download]

Oasis - Be Here Now (1997/2016)
FLAC (tracks) 24-bit/44.1 kHz | Time - 71:35 minutes | 887 MB
Studio Master, Official Digital Download | Artwork: Digital cover

Shamelessly enamored of The Beatles, Oasis uses „Be Here Now“ to serve up another heaping platter of larger-than-life rock and roll garnished with Fab Fourisms. Noel Gallagher's ambitious songwriting and production (which, not coincidentally, was done at Abbey Road) result in an average song length of almost six minutes and the full, gnarly guitar sound that's become Oasis' trademark. "Magic Pie" and "All Around The World" incorporate brassy orchestration reminiscent of "Let It Be," while the former's name seems a less-than-subtle nod to Macca's „Flaming Pie“ album released a few months prior.

Aside from the band's constant worship at the Beatles shrine, Gallagher occasionally draws from other sources, sharply addressing the uncertainty of fame with the slam-bang rock and roll of "I Hope, I Think, I Know" and the latter-day Stone Roses sound of "Fade In-Out" which prominently features guest Johnny Depp's slide guitar. With their nemesis Blur busy trolling the noisy depths of lo-fi, American indie rock, „Be Here Now“ proves to be another jewel in the crown of Brit-pop, which is now perched more firmly than ever on the collective, if occasionally swollen, head of Oasis.

Tracklist:

01. D'You Know What I Mean?
02. My Big Mouth
03. Magic Pie
04. Stand By Me
05. I Hope, I Think, I Know
06. The Girl In The Dirty Shirt
07. Fade In-Out
08. Don't Go Away
09. Be Here Now
10. All Around The World
11. It's Gettin' Better (Man!!)
12. All Around The World (Reprise)

Personnel:

Liam Gallagher - vocals
Noel Gallagher - lead guitar, vocals
Paul "Bonehead" Arthurs - rhythm guitar, acoustic guitar
Paul McGuigan - bass
Alan White - drums, percussion
Mark Coyle - backwards parts on "D'You Know What I Mean?"
Johnny Depp - slide guitar on "Fade In-Out"
Mark Feltham - harmonica on "All Around the World"
Mike Rowe - keyboards

foobar2000 1.3.7 / Dynamic Range Meter 1.1.1
log date: 2018-01-13 01:22:58

––––––––––––––––––––––––––––––––––––––––
Analyzed: Oasis / Be Here Now
––––––––––––––––––––––––––––––––––––––––

DR Peak RMS Duration Track
––––––––––––––––––––––––––––––––––––––––
DR5 -0.44 dB -6.86 dB 7:43 01-D'You Know What I Mean?
DR4 -0.65 dB -5.54 dB 5:11 02-My Big Mouth
DR5 -0.58 dB -6.49 dB 7:10 03-Magic Pie
DR5 -0.63 dB -6.76 dB 5:56 04-Stand By Me
DR5 -0.97 dB -6.39 dB 4:22 05-I Hope, I Think, I Know
DR5 -0.79 dB -6.66 dB 5:50 06-The Girl In The Dirty Shirt
DR5 -0.93 dB -8.11 dB 6:51 07-Fade In-Out
DR5 -0.82 dB -7.66 dB 4:49 08-Don't Go Away
DR5 -0.64 dB -6.87 dB 5:13 09-Be Here Now
DR5 -0.79 dB -6.85 dB 9:19 10-All Around The World
DR4 -0.75 dB -5.92 dB 7:03 11-It's Gettin' Better (Man!!)
DR6 -0.88 dB -9.31 dB 2:07 12-All Around The World (Reprise)
––––––––––––––––––––––––––––––––––––––––

Number of tracks: 12
Official DR value: DR5

Samplerate: 44100 Hz
Channels: 2
Bits per sample: 24
Bitrate: 1663 kbps
Codec: FLAC
================================================================================


All thanks go to the original releaser