Oded Tzur - Here Be Dragons (2020) [Official Digital Download 24/96]

Posted By: SERTiL
Oded Tzur - Here Be Dragons (2020) [Official Digital Download 24/96]

Oded Tzur - Here Be Dragons (2020)
FLAC (tracks) 24-bit/96 kHz | Time - 39:38 minutes | 728 MB
Studio Master, Official Digital Download | Artwork: Digital Booklet

Here Be Dragons is the ECM debut of New York based, Tel Aviv born saxophonist Oded Tzur, a strikingly original player and musical storyeller.

Tzur's graceful and fluid tenor sax sound has been influenced by studies with bansuri master Hariprasad Chaurasia, and the concept of raga is subtly embedded in his elegant compositions, played with verve and imagination by his outstanding Israeli-Greek-American jazz group. As DownBeat has observed: "Tzur and his colleagues are definitely on to something." Recorded in June 2019 at Auditorio Stelio Molo in Lugano, and produced by Manfred Eicher, the album is issued as Tzur embarks on an international tour.

Tracklist:
1. Here Be Dragons (8:29)
2. To Hold Your Hand (6:21)
3. 20 Years (9:55)
4. Miniature 1 (1:42)
5. Miniature 2 (1:45)
6. Miniature 3 (2:31)
7. The Dream (5:26)
8. Can't Help Falling In Love (3:34)

Personnel:
Oded Tzur (tenor saxophone)
Nitai Hershkovits (piano)
Petros Klampanis (double bass)
Johnathan Blake (drums)

foobar2000 1.3.7 / Dynamic Range Meter 1.1.1
log date: 2020-02-14 12:24:23

––––––––––––––––––––––––––––––––––––––––
Analyzed: Oded Tzur / Here Be Dragons
––––––––––––––––––––––––––––––––––––––––

DR Peak RMS Duration Track
––––––––––––––––––––––––––––––––––––––––
DR13 -0.50 dB -18.54 dB 8:29 01-Here Be Dragons
DR14 -0.50 dB -19.18 dB 6:21 02-To Hold Your Hand
DR15 -0.50 dB -20.54 dB 9:55 03-20 Years
DR16 -8.75 dB -29.99 dB 1:42 04-Miniature 1
DR16 -7.57 dB -28.73 dB 1:45 05-Miniature 2
DR9 -13.07 dB -27.79 dB 2:31 06-Miniature 3
DR13 -0.50 dB -15.95 dB 5:26 07-The Dream
DR14 -2.00 dB -20.48 dB 3:34 08-Can't Help Falling In Love
––––––––––––––––––––––––––––––––––––––––

Number of tracks: 8
Official DR value: DR14

Samplerate: 96000 Hz
Channels: 2
Bits per sample: 24
Bitrate: 2373 kbps
Codec: FLAC
================================================================================


Thanks to the Original customer.