Ophélie Gaillard - Carl Philipp Emanuel Bach Vol. 2 (2016) [TR24][OF]

Posted By: SERTiL
Ophélie Gaillard - Carl Philipp Emanuel Bach Vol. 2 (2016) [TR24][OF]

Ophélie Gaillard - Carl Philipp Emanuel Bach Vol. 2
Classical | FLAC (tracks) 24-bit/96 kHz | 80:59 min | 1.48 GB | Digital booklet
Label: Aparté | Tracks: 15 | Rls.date: 2016

After the success of their first volume Ophélie Gaillard and Pulcinella propose a second disc devoted to Johann Sebastian Bach's most talented and surprising son, Carl Philipp Emanuel (1714-1788). The Sinfonia in C major expresses multiple emotions, ranging from irrepressible suffering in the Adagio to joyous release and insouciance in the concluding Allegretto, tinged with near-Mozartian grace. The Cello Concerto in B flat reveals the influence of the waning Baroque era and Vivaldi in particular. The Sinfonia in E minor, nicknamed 'Fandango' and dating from his Berlin years, is commonly regarded as one of his finest symphonies. The particularly virtuosic Sonata for cello piccolo and keyboard shows to advantage the two soloists of this recording: Ophélie Gaillard and Francesco Corti, whose fieriness is further revealed in the Harpsichord Concerto in D minor.

TRACKLIST
01. Sinfonia No. 3 in C Major, Wq. 182/3 (Carl Philipp Emanuel Bach) I. Allegro assai
02. Sinfonia No. 3 in C Major, Wq. 182/3 (Carl Philipp Emanuel Bach) II. Adagio
03. Sinfonia No. 3 in C Major, Wq. 182/3 (Carl Philipp Emanuel Bach) III. Allegretto
04. Cello Concerto in B-Flat Major, Wq. 171 I. Allegro
05. Cello Concerto in B-Flat Major, Wq. 171 II. Adagio
06. Cello Concerto in B-Flat Major, Wq. 171 III. Allegro assai
07. Sinfonia in E Minor, Wq. 178 I. Allegro assai
08. Sinfonia in E Minor, Wq. 178 II. Andante moderato
09. Sinfonia in E Minor, Wq. 178 III. Allegro
10. Piccolo Cello Sonata in D Major, Wq. 137 I. Adagio, ma non tanto
11. Piccolo Cello Sonata in D Major, Wq. 137 II. Allegro di molto
12. Piccolo Cello Sonata in D Major, Wq. 137 III. Arioso
13. Harpsichord Concerto in D Minor, Wq. 17 I. Allegro
14. Harpsichord Concerto in D Minor, Wq. 17 II. Un poco adagio
15. Harpsichord Concerto in D Minor, Wq. 17 III. Allegro

foobar2000 1.3.7 / Замер динамического диапазона (DR) 1.1.1
Дата отчёта: 2017-02-07 18:30:09

––––––––––––––––––––––––––––––––––––––––
Анализ: Ophélie Gaillard and Pulcinella Orchestra/Pulcinella Orchestra/Carl Philipp Emanuel Bach/Pulcinella Orchestra/Ophélie Gaillard / Carl Philipp Emanuel Bach, Vol. 2
––––––––––––––––––––––––––––––––––––––––

DR Пики RMS Продолжительность трека
––––––––––––––––––––––––––––––––––––––––
DR13 0.00 дБ -15.45 дБ 2:23 1-Sinfonia No. 3 in C Major, Wq. 182/3: I. Allegro assai
DR12 -2.51 дБ -22.01 дБ 2:49 2-Sinfonia No. 3 in C Major, Wq. 182/3: II. Adagio
DR13 0.00 дБ -16.63 дБ 4:36 3-Sinfonia No. 3 in C Major, Wq. 182/3: III. Allegretto
DR14 -0.01 дБ -17.03 дБ 7:30 4-Cello Concerto in B-Flat Major, Wq. 171: I. Allegro
DR13 0.00 дБ -18.27 дБ 6:40 5-Cello Concerto in B-Flat Major, Wq. 171: II. Adagio
DR14 0.00 дБ -17.08 дБ 6:18 6-Cello Concerto in B-Flat Major, Wq. 171: III. Allegro assai
DR13 0.00 дБ -15.38 дБ 4:06 7-Sinfonia in E Minor, Wq. 178: I. Allegro assai
DR13 0.00 дБ -18.17 дБ 2:41 8-Sinfonia in E Minor, Wq. 178: II. Andante moderato
DR14 0.00 дБ -18.20 дБ 3:12 9-Sinfonia in E Minor, Wq. 178: III. Allegro
DR13 -0.65 дБ -20.69 дБ 3:41 10-Piccolo Cello Sonata in D Major, Wq. 137: I. Adagio, ma non tanto
DR14 0.00 дБ -18.04 дБ 9:15 11-Piccolo Cello Sonata in D Major, Wq. 137: II. Allegro di molto
DR13 -1.50 дБ -18.79 дБ 6:21 12-Piccolo Cello Sonata in D Major, Wq. 137: III. Arioso
DR12 -2.15 дБ -18.48 дБ 7:33 13-Harpsichord Concerto in D Minor, Wq. 17: I. Allegro
DR14 -1.88 дБ -22.19 дБ 7:43 14-Harpsichord Concerto in D Minor, Wq. 17: II. Un poco adagio
DR11 -2.16 дБ -17.39 дБ 6:17 15-Harpsichord Concerto in D Minor, Wq. 17: III. Allegro
––––––––––––––––––––––––––––––––––––––––

Количество треков: 15
Реальные значения DR: DR13

Частота: 96000 Гц
Каналов: 2
Разрядность: 24
Битрейт: 2910 кбит/с
Кодек: FLAC
================================================================================


Thanks to the Original customer.