Estonian National Symphony Orchestra & Neeme Järvi - Kapp, Lüdig & Lemba: Orchestral Works (2020) [24/48]

Posted By: SERTiL
Estonian National Symphony Orchestra & Neeme Järvi - Kapp, Lüdig & Lemba: Orchestral Works (2020) [24/48]

Estonian National Symphony Orchestra & Neeme Järvi - Kapp, Lüdig & Lemba: Orchestral Works (2020)
FLAC (tracks) 24-bit/48 kHz | Time - 73:17 minutes | 674 MB
Studio Master, Official Digital Download | Artwork: Digital Booklet

In his latest recording for Chandos with the Estonian National Symphony Orchestra, Neeme Järvi explores pieces by three of Estonia’s first composers. The bulk of the works in the programme were composed in the first decade of the twentieth century, and are all excellent representations of the birth of Estonian Music, as Estonia transitioned from a territory in the Russian Empire to an independent nation state. As was the norm at the end of the nineteenth century, these composers studied at the St Petersburg Conservatory, and Estonian symphonic music certainly has its roots in the Russian nationalist style. Like so much of European music of this era, ethnic identity is emphasised by the inclusion of native folk tunes, and the ‘Nordic’ style of Grieg and others is clearly an influence.

Kapp’s Fourth Symphony, however, was written after WWII, when Estonia and the other Baltic states were occupied by the Soviet Union, and is dedicated to the thirtieth anniversary of the All-Union Leninist Young Communist League (although probably not by choice), one reason for the title ‘Youth Symphony’. Kapp also subtitled it ‘Classical Symphony’ and its compact form and light textures deliver a distillation of the Estonian style.

Tracklist:
01. Overture-Fantasy No. 2 in B Minor
02. Piano Concerto No. 1 in G Major: I. Allegro moderato
03. Piano Concerto No. 1 in G Major: II. Andante con espressione
04. Piano Concerto No. 1 in G Major: III. Allegro
05. Midsummer Night
06. Overture-Fantasy No. 1 in B Minor
07. The Last Confession (Orch. C. Coleman)
08. Symphony No. 4 "Youth": I. Moderato
09. Symphony No. 4 "Youth": II. Andante con variazioni
10. Symphony No. 4 "Youth": III. Andante
11. Symphony No. 4 "Youth": IV. Allegro moderato

foobar2000 1.3.7 / Dynamic Range Meter 1.1.1
log date: 2020-02-10 15:21:12

––––––––––––––––––––––––––––––––––––––––
Analyzed: Estonian National Symphony Orchestra & Neeme Järvi / Kapp, Lüdig & Lemba: Orchestral Works
––––––––––––––––––––––––––––––––––––––––

DR Peak RMS Duration Track
––––––––––––––––––––––––––––––––––––––––
DR14 -1.00 dB -21.11 dB 8:52 01-Overture-Fantasy No. 2 in B Minor
DR12 -0.66 dB -18.57 dB 10:27 02-Piano Concerto No. 1 in G Major: I. Allegro moderato
DR14 -1.98 dB -22.20 dB 4:41 03-Piano Concerto No. 1 in G Major: II. Andante con espressione
DR13 -1.09 dB -19.53 dB 6:55 04-Piano Concerto No. 1 in G Major: III. Allegro
DR18 -1.08 dB -26.62 dB 6:29 05-Midsummer Night
DR17 -0.95 dB -24.43 dB 6:52 06-Overture-Fantasy No. 1 in B Minor
DR14 -12.65 dB -32.83 dB 6:13 07-The Last Confession (Orch. C. Coleman)
DR16 -1.82 dB -24.89 dB 6:05 08-Symphony No. 4 "Youth": I. Moderato
DR18 -4.27 dB -28.88 dB 7:04 09-Symphony No. 4 "Youth": II. Andante con variazioni
DR11 -18.68 dB -34.31 dB 2:50 10-Symphony No. 4 "Youth": III. Andante
DR15 -0.95 dB -21.21 dB 6:56 11-Symphony No. 4 "Youth": IV. Allegro moderato
––––––––––––––––––––––––––––––––––––––––

Number of tracks: 11
Official DR value: DR15

Samplerate: 48000 Hz
Channels: 2
Bits per sample: 24
Bitrate: 1348 kbps
Codec: FLAC
================================================================================


Thanks to the Original customer.