Subcategories

Oscar Peterson - Tenderly (with Herb Ellis & Ray Brown) (Live) (1958/2002/2016) [Official Digital Download]

Posted By: Pisulik
Oscar Peterson - Tenderly (with Herb Ellis & Ray Brown) (Live) (1958/2002/2016) [Official Digital Download]

Oscar Peterson - Tenderly (with Herb Ellis & Ray Brown) (Live) (1958/2002/2016)
FLAC (tracks) 24-bit/44.1 kHz | Time - 62:15 minutes | 589 MB
Studio Master, Official Digital Download | Artwork: Digital Booklet

Although there are numerous recordings featuring the Oscar Peterson Trio (with bassist Ray Brown and guitarist Herb Ellis), the discovery of another previously unreleased date such as this one is welcome news to his fans. This concert, recorded in the summer of 1958 at the Orpheum Theater in Vancouver, Canada, finds the group in top form, beginning with the simmering treatment of 'Alone Together.' In addition to other familiar favorites (such as a gallop through 'The Surrey With the Fringe on Top' and a pristine take of 'My Funny Valentine'), the trio delves into rarely heard original material, including Peterson's lovely 'Music Box Suite' (also known as 'Daisy's Dream') and a pair of works by Ellis, the wide-ranging solo feature called 'Patricia' and 'Pogo,' a turbocharged bop line focusing on Ellis and Brown, with a deliberately delayed entrance by the leader. The consistent high quality of the performances and the opportunity to hear less well-known songs make this CD an essential purchase for fans of Oscar Peterson.

Tracklist:

01 Alone Together
02 How About You
03 The Surrey With The Fringe On Top
04 The Music Box Suite (Daisy's Dream)
05 A Foggy Day
06 The Gypsy In My Soul
07 My Funny Valentine
08 Patricia
09 Pogo
10 Tenderly

Personnel:

Oscar Peterson - piano
Herb Ellis - guitar
Ray Brown - bass

foobar2000 1.3.7 / Dynamic Range Meter 1.1.1
log date: 2017-10-19 02:17:34

––––––––––––––––––––––––––––––––––––––––
Analyzed: Oscar Peterson with Herb Ellis & Ray Brown / Tenderly
––––––––––––––––––––––––––––––––––––––––

DR Peak RMS Duration Track
––––––––––––––––––––––––––––––––––––––––
DR11 0.00 dB -13.99 dB 6:13 01-Alone Together
DR10 0.00 dB -12.10 dB 5:07 02-How About You
DR10 0.00 dB -12.29 dB 4:07 03-The Surrey with the Fringe on Top
DR10 0.00 dB -14.23 dB 12:08 04-The Music Box Suite (Daisy's Dream)
DR8 0.00 dB -10.59 dB 8:04 05-A Foggy Day
DR9 0.00 dB -11.72 dB 6:13 06-Gypsy in My Soul
DR11 0.00 dB -15.77 dB 5:16 07-My Funny Valentine
DR12 0.00 dB -14.92 dB 5:09 08-Patricia
DR8 0.00 dB -10.30 dB 4:39 09-Pogo
DR11 0.00 dB -14.89 dB 5:19 10-Tenderly
––––––––––––––––––––––––––––––––––––––––

Number of tracks: 10
Official DR value: DR10

Samplerate: 44100 Hz
Channels: 2
Bits per sample: 24
Bitrate: 1220 kbps
Codec: FLAC
================================================================================


All thanks go to the original releaser