Paavo Järvi - Shostakovich: Cantatas (2015) [TR24][OF]

Posted By: SERTiL
Paavo Järvi - Shostakovich: Cantatas (2015) [TR24][OF]

Paavo Järvi - Shostakovich: Cantatas
Classical | FLAC (tracks) 24-bit/48 kHz | 7949 min | 857 MB | Digital booklet
Label: Erato | Tracks: 09 | Rls.date: 2015

Estonian-born conductor Paavo Järvi and the Estonian National Symphony Orchestra turn to rarely performed choral works by Dmitri Shostakovich: Song of the Forests Op. 81, The Sun Shines on our Motherland Op. 90, and The Execution of Stepan Razin Op. 119. The new release confirms Järvi’s reputation as a conductor with a deep understanding for the music of Shostakovich, as well as a particular affinity for choral music, which has a strong tradition in his homeland. These cantatas have a particular significance in Estonia – a former Soviet Socialist Republic under Stalinist rule. By the time Shostakovich composed The Execution of Stepan Razin for bass, concert chorus and orchestra in 1964, Stalin had died and the composer felt able to take a few risks under the regime of Nikita Khrushchev. The cantata is set to a grisly poem about a 17th-century Cossack revolutionary. Järvi calls the work an “absolute masterpiece” and a “critical view of the Soviet regime”.

TRACKLIST
01. The Execution of Stepan Razin, Op. 119
02. The Sun Shines over our Motherland, Op. 90
03. The Song of the Forests, Op. 81_ I. The war ended in victory (Bass, Chorus)
04. The Song of the Forests, Op. 81_ II. We will clothe our homeland with forests (Boys Chorus)
05. The Song of the Forests, Op. 81_ III. Memories of the past (Bass, Chorus)
06. The Song of the Forests, Op. 81_ IV. The pioneers plant the forests (Boys Chorus)
07. The Song of the Forests, Op. 81_ V. The people of Stalingrad go forth (Chorus)
08. The Song of the Forests, Op. 81_ VI. A walk into the future (Tenor, Chorus)
09. The Song of the Forests, Op. 81_ VII. Glory (Tenor, Bass, Boys Chorus, Chorus)

foobar2000 1.3.7 / Замер динамического диапазона (DR) 1.1.1
Дата отчёта: 2017-02-07 19:22:02

––––––––––––––––––––––––––––––––––––––––
Анализ: Paavo Järvi / Shostakovich: Cantatas "Song of the Forests"
––––––––––––––––––––––––––––––––––––––––

DR Пики RMS Продолжительность трека
––––––––––––––––––––––––––––––––––––––––
DR12 -0.29 дБ -18.14 дБ 29:25 01-The Execution of Stepan Razin, Op. 119 (Live)
DR10 -0.29 дБ -15.61 дБ 14:17 02-The Sun Shines over our Motherland, Op. 90 (Live)
DR13 -3.10 дБ -21.20 дБ 5:00 03-The Song of the Forests, Op. 81: I. The war ended in victory (Bass, Chorus) - Live
DR11 -0.29 дБ -15.96 дБ 2:53 04-The Song of the Forests, Op. 81: II. We will clothe our homeland with forests (Boys Chorus) - Live
DR13 -0.29 дБ -19.09 дБ 7:00 05-The Song of the Forests, Op. 81: III. Memories of the past (Bass, Chorus) - Live
DR14 -0.84 дБ -22.99 дБ 2:01 06-The Song of the Forests, Op. 81: IV. The pioneers plant the forests (Boys Chorus) - Live
DR10 -0.29 дБ -13.60 дБ 3:24 07-The Song of the Forests, Op. 81: V. The people of Stalingrad go forth (Chorus) - Live
DR14 -4.66 дБ -24.91 дБ 6:32 08-The Song of the Forests, Op. 81: VI. A walk into the future (Tenor, Chorus) - Live
DR9 -0.29 дБ -13.51 дБ 9:19 09-The Song of the Forests, Op. 81: VII. Glory (Tenor, Bass, Boys Chorus, Chorus) - Live
––––––––––––––––––––––––––––––––––––––––

Количество треков: 9
Реальные значения DR: DR12

Частота: 48000 Гц
Каналов: 2
Разрядность: 24
Битрейт: 1658 кбит/с
Кодек: FLAC
================================================================================


Thanks to the Original customer.