Paul Lay - Alcazar Memories / The Party (2017) [Official Digital Download]

Posted By: Pisulik
Paul Lay - Alcazar Memories / The Party (2017) [Official Digital Download]

Paul Lay - Alcazar Memories / The Party (2017)
FLAC (tracks) 24-bit/44.1 kHz | Time - 111:51 minutes | 1,06 GB
Studio Master, Official Digital Download | Artwork: Digital Booklet

Very greedy Paul Lay who starts the year 2017 with not one but two albums that he publishes simultaneously: Alcazar Memories and The Party. The first is built around his piano, a voice (that of Isabel Sörling) and a bass (held by Simon Tailleu). "It was the sound I had in mind for this repertoire of songs and poems inspired by nature and its riches, to create many climates and music as dense as air. All these pieces celebrate this Nature, its strength, its multitude, but also describe the Man and his moods, through songs of love. "Paul Lay brings together personal compositions but also signed pieces including Gershwin or Vincent Scotto. Fascinating Swedish singer living between Gothenburg and Paris, Sörling radiates these Alcazar Memories. Paul Lay is not content to accompany him and each theme is truly designed to three. Also three for the second album, The Party. "I developed this repertoire as a sound illustration of film scenes that take place at a party. Joy, lightness, the unexpected. The excitement of meeting again. Each piece characterizes a character, a situation, or an exchange of looks, a dance, and many other movements. A party is also an opportunity to observe the game of masks: the ego of each, complex, shimmers differently depending on the situation, in order to obtain the group's support. These moments of gathering refer us to our own identity, the multiple facets that constitute our personality, our image, our cracks, our repressions, our projections, our fantasies, confronting our reality to that of others. Following the 2014 Mikado album, Paul Lay wanted to deepen his compositional work with Clemens Van Der Feen and Dré Pallemaerts. A natural rhythm and powerful, subtle and delicate, always at the service of emotion and sensation. Hear this trio is pretty jubilant. The proposed complicity, the wealth of improvisations and the great musicality of the themes played, Lay sign here his most impressive record. On arrival, the union of these two projects is the flagrant proof of the caliber of the pianist, f = great performer and great composer of his generation.

Tracklist:

CD1

01. Blue Roses (feat. Isabelle Sörling & Simon Tailleu)
02. Memories (Sing Song) [feat. Isabelle Sörling & Simon Tailleu]
03. Returning (feat. Isabelle Sörling & Simon Tailleu)
04. Hundred Fires (feat. Isabelle Sörling & Simon Tailleu)
05. Bereden Väg För Herran (feat. Isabelle Sörling & Simon Tailleu)
06. Adieu Venise provençale (feat. Isabelle Sörling & Simon Tailleu)
07. A Question (feat. Isabelle Sörling)
08. Amour et printemps (feat. Isabelle Sörling & Simon Tailleu)
09. Convictions (feat. Isabelle Sörling & Simon Tailleu)
10. Haze (feat. Isabelle Sörling & Simon Tailleu)
11. The Man I Love (feat. Isabelle Sörling & Simon Tailleu)

foobar2000 1.3.7 / Dynamic Range Meter 1.1.1
log date: 2018-02-21 07:37:36

––––––––––––––––––––––––––––––––––––––––
Analyzed: Paul Lay / Alcazar Memories / The Party
––––––––––––––––––––––––––––––––––––––––

DR Peak RMS Duration Track
––––––––––––––––––––––––––––––––––––––––
DR11 -0.87 dB -15.71 dB 5:08 01-Blue Roses (feat Isabelle Sörling & Simon Tailleu)
DR11 -0.89 dB -14.84 dB 5:04 02-Memories (Sing Song) [feat Isabelle Sörling & Simon Tailleu]
DR11 -0.81 dB -14.10 dB 5:36 03-Returning (feat Isabelle Sörling & Simon Tailleu)
DR11 -0.54 dB -13.26 dB 4:38 04-Hundred Fires (feat Isabelle Sörling & Simon Tailleu)
DR12 -0.97 dB -17.52 dB 6:31 05-Bereden Väg För Herran (feat Isabelle Sörling & Simon Tailleu)
DR11 -0.50 dB -15.12 dB 4:26 06-Adieu Venise provençale (feat Isabelle Sörling & Simon Tailleu)
DR12 -3.84 dB -22.45 dB 1:27 07-A Question (feat Isabelle Sörling)
DR11 -0.50 dB -14.86 dB 4:46 08-Amour et printemps (feat Isabelle Sörling & Simon Tailleu)
DR12 -0.50 dB -15.61 dB 8:05 09-Convictions (feat Isabelle Sörling & Simon Tailleu)
DR10 -0.50 dB -14.32 dB 5:02 10-Haze (feat Isabelle Sörling & Simon Tailleu)
DR12 -0.50 dB -16.45 dB 4:54 11-The Man I Love (feat Isabelle Sörling & Simon Tailleu)
––––––––––––––––––––––––––––––––––––––––

Number of tracks: 11
Official DR value: DR11

Samplerate: 44100 Hz
Channels: 2
Bits per sample: 24
Bitrate: 1182 kbps
Codec: FLAC
================================================================================


CD2

01. The Party Begins (feat. Dré Pallemaerts & Clemens Van Der Feen)
02. Valse rouge (feat. Dré Pallemaerts & Clemens Van Der Feen)
03. A Letter (feat. Dré Pallemaerts & Clemens Van Der Feen)
04. Regards croisés (feat. Dré Pallemaerts & Clemens Van Der Feen)
05. A distance du tumulte (feat. Dré Pallemaerts & Clemens Van Der Feen)
06. Langueurs (feat. Dré Pallemaerts & Clemens Van Der Feen)
07. M. Birdy (feat. Dré Pallemaerts & Clemens Van Der Feen)
08. Dance for Three (feat. Dré Pallemaerts & Clemens Van Der Feen)
09. Murmures (feat. Dré Pallemaerts & Clemens Van Der Feen)
10. Droodoo (feat. Dré Pallemaerts & Clemens Van Der Feen)
11. I Fall in Love Too Easily (feat. Dré Pallemaerts & Clemens Van Der Feen)

foobar2000 1.3.7 / Dynamic Range Meter 1.1.1
log date: 2018-02-21 07:43:14

––––––––––––––––––––––––––––––––––––––––
Analyzed: Paul Lay / Alcazar Memories / The Party
––––––––––––––––––––––––––––––––––––––––

DR Peak RMS Duration Track
––––––––––––––––––––––––––––––––––––––––
DR13 -0.68 dB -15.44 dB 5:36 01-The Party Begins (feat Dré Pallemaerts & Clemens Van Der Feen)
DR14 -0.68 dB -17.70 dB 4:26 02-Valse rouge (feat Dré Pallemaerts & Clemens Van Der Feen)
DR10 -0.68 dB -13.97 dB 5:37 03-A Letter (feat ré Pallemaerts & Clemens Van Der Feen)
DR13 -0.67 dB -17.69 dB 4:34 04-Regards croisés (feat Dré Pallemaerts & Clemens Van Der Feen)
DR12 -2.85 dB -21.27 dB 4:18 05-A distance du tumulte (feat Dré Pallemaerts & Clemens Van Der Feen)
DR13 -0.68 dB -16.47 dB 5:43 06-Langueurs (feat Dré Pallemaerts & Clemens Van Der Feen)
DR11 -0.68 dB -13.49 dB 3:02 07-M Birdy (feat Dré Pallemaerts & Clemens Van Der Feen)
DR11 -0.68 dB -14.61 dB 9:29 08-Dance for Three (feat Dré Pallemaerts & Clemens Van Der Feen)
DR14 -0.68 dB -18.57 dB 4:05 09-Murmures (feat Dré Pallemaerts & Clemens Van Der Feen)
DR15 -0.68 dB -18.60 dB 5:38 10-Droodoo (feat Dré Pallemaerts & Clemens Van Der Feen)
DR11 -0.68 dB -14.41 dB 3:54 11-I Fall in Love Too Easily (feat Dré Pallemaerts & Clemens Van Der Feen)
––––––––––––––––––––––––––––––––––––––––

Number of tracks: 11
Official DR value: DR13

Samplerate: 44100 Hz
Channels: 2
Bits per sample: 24
Bitrate: 1207 kbps
Codec: FLAC
================================================================================


All thanks go to the original releaser