Peter Henry Phillips - The Origin (2015/2017) [Official Digital Download]

Posted By: Pisulik
Peter Henry Phillips - The Origin (2015/2017) [Official Digital Download]

Peter Henry Phillips - The Origin (2015/2017)
FLAC (tracks) 24-bit/48 kHz | Time - 59:57 minutes | 686 MB
Studio Master, Official Digital Download | Artwork: Front cover

This is an outstanding album from a gifted singer songwriter. Peter Henry Phillips has the ability to capture depth of emotion in a single line. His intonation and dynamic style comes through on every track on the album. This is the kind of album that I don’t just cover for the site, but gets added to my personal collection and steady rotation for years to come. Peter Henry Phillips arrives on the scene with The Origin, establishing himself as a songwriting force with a gesture toward literary lyricism and malleable melodies.

All told this is an exceptionally good album. It really should have been considered for 2015 album of the year. It’s that good. Fans of any of the bands mentioned above should really give Peter Henry Phillips a listen. I don’t think he’s going away in the industry anytime soon and I can’t wait to hear him live. He’s an extremely talented artist. He’s one of those gems we cover around here that make you say, “wow, I can’t believe we’re not hearing more about him.” Soon he’ll be on all the big shows, his sales will spike, and you’ll be able to tell your friends you heard him here first. Go out and get The Origin. It is an infinitely rewarding album.


01. The Wind
02. Dreamcatcher
03. I Wanna Go
04. Hold That
05. Henry
06. Be The Light
07. The Night
08. Walking Fast
09. Burn & Crash
10. Tempest
11. Almost Died
12. Young Warrior
13. Mirror
14. Secret
15. Burn & Crash (Acoustic Session)
16. Bloom

foobar2000 1.3.7 / Dynamic Range Meter 1.1.1
log date: 2018-02-20 11:19:13

Analyzed: Peter Henry Phillips / The Origin

DR Peak RMS Duration Track
DR5 -0.03 dB -8.66 dB 3:55 01-The Wind
DR6 0.00 dB -10.54 dB 4:46 02-Dreamcatcher
DR6 0.00 dB -7.58 dB 3:34 03-I Wanna Go
DR5 0.00 dB -8.36 dB 4:31 04-Hold That
DR5 -0.09 dB -8.46 dB 3:08 05-Henry
DR7 0.00 dB -9.28 dB 4:10 06-Be The Light
DR6 0.00 dB -7.91 dB 2:43 07-The Night
DR6 0.00 dB -8.05 dB 3:18 08-Walking Fast
DR6 -0.05 dB -8.09 dB 4:15 09-Burn & Crash
DR7 0.00 dB -9.10 dB 4:06 10-Tempest
DR6 0.00 dB -7.55 dB 3:58 11-Almost Died
DR6 0.00 dB -9.34 dB 4:07 12-Young Warrior
DR7 -0.06 dB -10.56 dB 2:58 13-Mirror
DR6 0.00 dB -8.42 dB 3:05 14-Secret
DR6 -0.04 dB -8.63 dB 3:49 15-Burn & Crash (Acoustic Session)
DR7 0.00 dB -10.38 dB 3:34 16-Bloom

Number of tracks: 16
Official DR value: DR6

Samplerate: 48000 Hz
Channels: 2
Bits per sample: 24
Bitrate: 1443 kbps
Codec: FLAC

All thanks go to the original releaser