Pink Floyd - The Later Years: 1987-2019 (2019) [Official Digital Download]

Posted By: SERTiL
Pink Floyd - The Later Years: 1987-2019 (2019) [Official Digital Download]

Pink Floyd - The Later Years: 1987-2019 (2019)
FLAC (tracks) 24-bit/44.1 kHz | Time - 79:49 minutes | 921 MB
Studio Master, Official Digital Download | Artwork: Front Cover

Pink Floyd-the band was one of the most famous in history. 12 track highlights from the box set. Includes 3 new mixes from 'A Momentary Lapse of Reason', 3 new mixes from 'Delicate Sound of Thunder', 3 tracks from Knebworth 1990, 2 unreleased studio recordings from 'The Division Bell' and a 1994 tour rehearsal track.

Tracklist:
1. Shine On You Crazy Diamond (Parts 1-5) (Live at Knebworth 1990 2019 Mix) (11:17)
2. Marooned Jam (1994 Recording) (3:19)
3. One Slip (Remix 2019) (5:10)
4. Lost for Words (Tour Rehearsal 1994) (5:35)
5. Us and Them (Live, Delicate Sound of Thunder 2019 Remix) (7:40)
6. Comfortably Numb (Live at Knebworth 1990 2019 Mix) (7:43)
7. Sorrow (Remix 2019) (8:46)
8. Learning to Fly (Live, Delicate Sound of Thunder 2019 Remix) (5:20)
9. High Hopes (Early Version, 1994 Recording) (6:56)
10. On the Turning Away (Remix 2019) (5:41)
11. Wish You Were Here (Live at Knebworth 1990 2019 Mix) (4:44)
12. Run Like Hell (Live, Delicate Sound of Thunder 2019 Remix) (7:46)

Digitally remastered

foobar2000 1.3.7 / Dynamic Range Meter 1.1.1
log date: 2019-11-29 10:56:10

––––––––––––––––––––––––––––––––––––––––
Analyzed: Pink Floyd / The Later Years: 1987-2019
––––––––––––––––––––––––––––––––––––––––

DR Peak RMS Duration Track
––––––––––––––––––––––––––––––––––––––––
DR11 -0.31 dB -13.89 dB 11:17 01-Shine On You Crazy Diamond (Pts. 1-5) (Live at Knebworth 1990, 2019 Mix)
DR12 -0.61 dB -14.30 dB 3:19 02-Marooned Jam (1994 Recording)
DR10 -0.42 dB -12.49 dB 5:10 03-One Slip (2019 Remix)
DR12 -0.61 dB -14.65 dB 5:35 04-Lost For Words (Tour Rehearsal 1994)
DR9 -0.12 dB -13.86 dB 7:40 05-Us And Them (Live, Delicate Sound Of Thunder, 2019 Remix)
DR10 -0.31 dB -12.52 dB 7:43 06-Comfortably Numb (Live at Knebworth 1990, 2019 Mix)
DR8 -0.48 dB -10.40 dB 8:46 07-Sorrow (2019 Remix)
DR10 -0.01 dB -12.56 dB 5:20 08-Learning To Fly (Live, Delicate Sound Of Thunder, 2019 Remix)
DR11 -0.54 dB -13.99 dB 6:56 09-High Hopes (Early Version, 1994 Recording)
DR8 -0.35 dB -11.80 dB 5:41 10-On The Turning Away (2019 Remix)
DR12 -0.31 dB -15.44 dB 4:44 11-Wish You Were Here (Live at Knebworth 1990, 2019 Mix)
DR8 -0.23 dB -10.25 dB 7:44 12-Run Like Hell (Live, Delicate Sound Of Thunder, 2019 Remix)
––––––––––––––––––––––––––––––––––––––––

Number of tracks: 12
Official DR value: DR10

Samplerate: 44100 Hz
Channels: 2
Bits per sample: 24
Bitrate: 1650 kbps
Codec: FLAC
================================================================================


Thanks to the Original customer.