Tags
Language
Tags

Poliphony - Poliphony (1973/2022)

Posted By: v3122
Poliphony - Poliphony (1973/2022)

Poliphony - Poliphony (1973/2022)
FLAC (Tracks) 24-bit/44.1 kHz | Official Digital Download | Time: 00:43:43
Jazz, Rock | Branditmusic | ~ 217 Mb

~ British jazz underground masterpiece. Ultra rare UK Prog-Jazz Fusion private-pressing ~

Poliphony - Poliphony (1973/2022):

Tracklist:

01. Poliphony - Underdog (4:48)
02. Poliphony - Cameo (4:30)
03. Poliphony - Monday's Race (4:12)
04. Poliphony - Leaf (6:34)
05. Poliphony - Mirror (part 1) / Mirror (part 2) (7:42)
06. Poliphony - Decision for Gillian (4:08)
07. Poliphony - Gagged and Bound (7:10)
08. Poliphony - Richard's Raga (4:43)

foobar2000 1.5.5 / Dynamic Range Meter 1.1.1
log date: 2022-03-20 21:41:43

––––––––––––––––––––––––––––––––––––––––
Analyzed: Poliphony / Poliphony
––––––––––––––––––––––––––––––––––––––––

DR Peak RMS Duration Track
––––––––––––––––––––––––––––––––––––––––
DR10 -1.67 dB -14.66 dB 4:48 01-Underdog
DR10 -1.61 dB -14.90 dB 4:30 02-Cameo
DR10 -1.62 dB -13.65 dB 4:12 03-Monday's Race
DR11 -1.28 dB -15.90 dB 6:34 04-Leaf
DR11 -1.18 dB -15.50 dB 7:42 05-Mirror (part 1) / Mirror (part 2)
DR10 -1.06 dB -13.60 dB 4:08 06-Decision for Gillian
DR10 -0.92 dB -14.25 dB 7:10 07-Gagged and Bound
DR11 -1.73 dB -15.44 dB 4:43 08-Richard's Raga
––––––––––––––––––––––––––––––––––––––––

Number of tracks: 8
Official DR value: DR11

Samplerate: 44100 Hz
Channels: 2
Bits per sample: 24
Bitrate: 595 kbps
Codec: FLAC

All thanks go to the original releaser

Download Poliphony - Poliphony (1973/2022):