Porcupine Tree - In Absentia (Remastered) (2002/2020) [Official Digital Download 24/96]

Posted By: SERTiL
Porcupine Tree - In Absentia (Remastered) (2002/2020) [Official Digital Download 24/96]

Porcupine Tree - In Absentia (Remastered) (2002/2020)
FLAC (tracks) 24-bit/96 kHz | Time - 68:37 minutes | 1.32 GB
Studio Master, Official Digital Download | Artwork: Front Cover

For the first time since their original release, they have also been remastered by PT songwriter and frontman, Steven Wilson. The new mastering has considerably less compression and limiting for a more dynamic listening experience. In Absentia was the band's seventh studio album, first released in 2002, and was the first in a run of 3 albums that for many represent the pinnacle of the band's artistic achievements. It was something of a breakthrough for the band, selling three times more than previous releases. Following on from 2000's Lightbulb Sun it had a distinctly heavier tone, partly due to the addition of legendary drummer Gavin Harrison, and was also their first for major label Lava / Atlantic Records. In Absentia features many of Porcupine Tree's most loved songs including "Trains", "The Sound of Muzak" and "Blackest Eyes". While not a formal concept album, many of the songs have common themes related to serial killers, youthful innocence gone wrong, and observations of the modern world, setting a template for many of Wilson's future songs. These new vinyl editions will be released on double heavyweight audiophile 180g black vinyl presented in gatefold packaging.

Tracklist:
1. Blackest Eyes (Remastered) (4:25)
2. Trains (Remastered) (6:00)
3. Lips Of Ashes (Remastered) (4:42)
4. The Sound Of Muzak (Remastered) (4:59)
5. Gravity Eyelids (Remastered) (8:00)
6. Wedding Nails (Remastered) (6:33)
7. Prodigal (Remastered) (5:37)
8. .3 (Remastered) (5:26)
9. The Creator Has A Mastertape (Remastered) (5:21)
10. Heartattack In A Layby (Remastered) (4:34)
11. Strip The Soul (Remastered) (7:17)
12. Collapse The Light Into Earth (Remastered) (5:47)

foobar2000 1.3.7 / Dynamic Range Meter 1.1.1
log date: 2020-02-28 13:01:18

––––––––––––––––––––––––––––––––––––––––
Analyzed: Porcupine Tree / In Absentia
––––––––––––––––––––––––––––––––––––––––

DR Peak RMS Duration Track
––––––––––––––––––––––––––––––––––––––––
DR11 -0.10 dB -12.58 dB 4:25 01-Blackest Eyes (Remastered)
DR11 -0.10 dB -14.30 dB 6:00 02-Trains (Remastered)
DR9 -4.50 dB -17.79 dB 4:42 03-Lips Of Ashes (Remastered)
DR12 -0.10 dB -13.57 dB 4:59 04-The Sound Of Muzak (Remastered)
DR12 -0.10 dB -14.60 dB 8:00 05-Gravity Eyelids (Remastered)
DR12 -0.10 dB -14.42 dB 6:33 06-Wedding Nails (Remastered)
DR12 -0.10 dB -15.16 dB 5:37 07-Prodigal (Remastered)
DR11 -0.10 dB -15.33 dB 5:26 08-.3 (Remastered)
DR10 -0.10 dB -12.98 dB 5:21 09-The Creator Has A Mastertape (Remastered)
DR11 -0.88 dB -16.23 dB 4:34 10-Heartattack In A Layby (Remastered)
DR10 -0.10 dB -12.71 dB 7:17 11-Strip The Soul (Remastered)
DR11 -0.44 dB -15.86 dB 5:47 12-Collapse The Light Into Earth (Remastered)
––––––––––––––––––––––––––––––––––––––––

Number of tracks: 12
Official DR value: DR11

Samplerate: 96000 Hz
Channels: 2
Bits per sample: 24
Bitrate: 2504 kbps
Codec: FLAC
================================================================================


Thanks to the Original customer.