Pristine - Road Back to Ruin (2019) [Official Digital Download 24/88]

Posted By: Pisulik
Pristine - Road Back to Ruin (2019) [Official Digital Download 24/88]

Pristine - Road Back to Ruin (2019)
FLAC (tracks) 24-bit/88.2 kHz | Time - 55:05 minutes | 1,06 GB
Studio Master, Official Digital Download | Artwork: Front cover

The fifth album from Norwegian band PRISTINE showcases the band's consistent development and increasingly diverse influences. Heidi Solheim, the band's lead singer and creative mastermind from Tromso, spanned a wide musical and lyrical range to write eleven songs for "Road Back To Ruin" - the band and her voice are the album's common threads.

The song "Sinnerman" was written during the 2018 tour, and its intensity makes it the perfect album opener. The title track barrels towards listeners with a massiveness that gives the song real weight. As does "Blind Spot", a song that includes a short intro performed in Arabic by Syrian singer Racha Rizk, which is followed by powerful riffs from Espen Elverum Jacobsen, PRISTINE's guitarist and the band's "secret weapon." "Cause & Effect" is at the other end of the spectrum; this track was recorded with the 20-musician string orchestra "The Arctic Philharmonic", which gave it a 007 vibe. And then there is the truly atypical but wonderful "Your Song inspired by Neil Young's acoustic recordings.

Tracklist:

01. Sinnerman
02. Road Back To Ruin
03. Bluebird
04. Landslide
05. Aurora Skies
06. Pioneer
07. Blind Spot
08. The Sober
09. Cause And Effect
10. Your Song
11. Dead End
12. Ghost Chase (Live)

foobar2000 1.3.7 / Dynamic Range Meter 1.1.1
log date: 2019-04-18 16:09:54

––––––––––––––––––––––––––––––––––––––––
Analyzed: Pristine / Road Back to Ruin
––––––––––––––––––––––––––––––––––––––––

DR Peak RMS Duration Track
––––––––––––––––––––––––––––––––––––––––
DR6 -0.45 dB -6.98 dB 3:07 01-Sinnerman
DR6 -0.45 dB -7.09 dB 4:50 02-Road Back To Ruin
DR5 -0.45 dB -7.81 dB 5:32 03-Bluebird
DR6 -0.45 dB -7.63 dB 3:28 04-Landslide
DR8 -0.45 dB -11.02 dB 5:05 05-Aurora Skies
DR6 -0.45 dB -7.54 dB 3:02 06-Pioneer
DR7 -0.45 dB -9.78 dB 7:06 07-Blind Spot
DR6 -0.45 dB -7.71 dB 3:35 08-The Sober
DR7 -0.45 dB -8.93 dB 6:16 09-Cause And Effect
DR8 -0.45 dB -10.24 dB 3:01 10-Your Song
DR6 -0.45 dB -7.62 dB 2:35 11-Dead End
DR7 -0.45 dB -10.18 dB 7:33 12-Ghost Chase
––––––––––––––––––––––––––––––––––––––––

Number of tracks: 12
Official DR value: DR6

Samplerate: 88200 Hz
Channels: 2
Bits per sample: 24
Bitrate: 2619 kbps
Codec: FLAC
================================================================================


All thanks go to the original releaser