Puss N Boots - Sister (2020) [Official Digital Download 24/96]

Posted By: SERTiL
Puss N Boots - Sister (2020) [Official Digital Download 24/96]

Puss N Boots - Sister (2020)
FLAC (tracks) 24-bit/96 kHz | Time - 53:12 minutes | 1.04 GB
Studio Master, Official Digital Download | Artwork: Front Cover

Puss N Boots-the charming trio featuring Norah Jones, Sasha Dobson, and Catherine Popper- release their second full-length album, Sister. Sister is a fetching collection of originals written by the band members collectively and individually, mixed with loving covers of songs by Tom Petty ("Angel Dream"), Dolly Parton ("The Grass Is Blue"), Paul Westerberg ("It's a Wonderful Lie"), and Concrete Blonde ("Joey").

Tracklist:
1. Jamola (03:46)
2. It's Not Easy (04:18)
3. Nothing You Can Do (02:46)
4. Lucky (04:15)
5. You and Me (03:47)
6. You Don't Know (04:04)
7. The Great Romancer (04:25)
8. It’s A Wonderful Lie (03:14)
9. Sister (02:38)
10. The Razor Song (04:10)
11. Angel Dream (03:24)
12. Same Old Bullshit (04:12)
13. Joey (04:01)
14. The Grass Is Blue (04:12)

foobar2000 1.3.7 / Dynamic Range Meter 1.1.1
log date: 2020-02-14 12:26:05

––––––––––––––––––––––––––––––––––––––––
Analyzed: Norah Jones / Sister (1)
Puss N Boots / Sister (2-14)
––––––––––––––––––––––––––––––––––––––––

DR Peak RMS Duration Track
––––––––––––––––––––––––––––––––––––––––
DR9 -0.28 dB -12.94 dB 4:13 14-The Grass Is Blue
DR9 -0.20 dB -11.46 dB 3:46 01-Jamola
DR8 -0.20 dB -10.77 dB 4:18 02-It's Not Easy
DR8 -0.33 dB -11.03 dB 2:46 03-Nothing You Can Do
DR9 -0.33 dB -11.67 dB 4:15 04-Lucky
DR9 -0.33 dB -11.72 dB 3:48 05-You and Me
DR9 -0.33 dB -12.06 dB 4:05 06-You Don't Know
DR8 -0.33 dB -10.28 dB 4:26 07-The Great Romancer
DR9 -0.38 dB -10.90 dB 3:15 08-It’s A Wonderful Lie
DR8 -0.38 dB -10.18 dB 2:39 09-Sister
DR9 -0.20 dB -10.96 dB 4:10 10-The Razor Song
DR10 -0.20 dB -13.02 dB 3:24 11-Angel Dream
DR8 -0.20 dB -10.22 dB 4:13 12-Same Old Bullshit
DR8 -0.38 dB -9.55 dB 4:01 13-Joey
––––––––––––––––––––––––––––––––––––––––

Number of tracks: 14
Official DR value: DR9

Samplerate: 96000 Hz
Channels: 2
Bits per sample: 24
Bitrate: 2862 kbps
Codec: FLAC
================================================================================


Thanks to the Original customer.