Rachel Baiman - Cycles (2021) [Official Digital Download]

Posted By: pyatak
Rachel Baiman - Cycles (2021) [Official Digital Download]

Rachel Baiman - Cycles (2021) [Official Digital Download]
FLAC (tracks) 24-bit/48 kHz | Front Cover | Time - 39:32 minutes | 385 MB
Folk | Label: Signature Sounds Recordings, Official Digital Download

With her 2017 debut “Shame”, Americana songwriter and multi-instrumentalist Rachel Baiman emerged as a fearless voice of the American female experience. “Shame” was featured on NPR’s “Songs We Love”, called a “Rootsy Wake-up Call” by Folk Alley, and described by Vice’s “Noisey” as “flipping off authority one song at a time.”

On her new full-length album Cycles, Baiman has found a grittier musical medium, employing a majority-female team to create hard-hitting songs, trading in pretty for penetrating. Cycles is a collection of songs encompassing the many ways that we destroy and rebuild as people, as families, and as a country. Songs about the cycle of life inspired by the birth of a nephew and the loss of a grandmother, songs about the internal mental cycles of ambition and self-doubt that we all experience, the cycle of progress and regression in our country’s political journey, and the cycles of growth and reinvention that relationships take on. At times heartbreaking, at times celebratory, the album is a reflection of a lot of life experienced in a relatively short amount of time, a desire to hold fast to the people we love in the wake of so much uncertainty, and an exploration of the immense and unique strength of women in the face of adversity.

TRACKLIST

1. Rachel Baiman - Cycles
2. Rachel Baiman - Joke’s On Me
3. Rachel Baiman - Rust Belt Fields
4. Rachel Baiman - Wyoming Wildflowers
5. Rachel Baiman - When You Bloom (Colorado)
6. Rachel Baiman - Hope It Hurts
7. Rachel Baiman - Young Love
8. Rachel Baiman - Ships in the Night
9. Rachel Baiman - No Good Time for Dying
10. Rachel Baiman - The Distance

foobar2000 1.6.2 / Dynamic Range Meter 1.1.1
log date: 2021-06-12 17:16:34

––––––––––––––––––––––––––––––––––––––––
Analyzed: Rachel Baiman / Cycles
––––––––––––––––––––––––––––––––––––––––

DR Peak RMS Duration Track
––––––––––––––––––––––––––––––––––––––––
DR7 -0.93 dB -10.15 dB 3:06 01-Cycles
DR8 -0.95 dB -10.51 dB 2:46 02-Joke’s On Me
DR8 -1.75 dB -11.48 dB 4:29 03-Rust Belt Fields
DR6 -0.48 dB -9.08 dB 3:19 04-Wyoming Wildflowers
DR5 -2.94 dB -10.03 dB 4:01 05-When You Bloom (Colorado)
DR6 -0.81 dB -9.19 dB 2:39 06-Hope It Hurts
DR7 -0.99 dB -11.31 dB 3:49 07-Young Love
DR6 -2.12 dB -10.24 dB 2:51 08-Ships in the Night
DR7 -0.99 dB -11.52 dB 2:58 09-No Good Time for Dying
DR8 -1.82 dB -12.35 dB 2:45 10-The Distance
––––––––––––––––––––––––––––––––––––––––

Number of tracks: 10
Official DR value: DR7

Samplerate: 48000 Hz
Channels: 2
Bits per sample: 24
Bitrate: 1445 kbps
Codec: FLAC
================================================================================



Thanks to the Original customer.