Rachel Wammack - Enough EP (2019) [Official Digital Download]

Posted By: Pisulik
Rachel Wammack - Enough EP (2019) [Official Digital Download]

Rachel Wammack - Enough EP (2019)
FLAC (tracks) 24-bit/44.1 kHz | Time - 18:08 minutes | 211 MB
Studio Master, Official Digital Download | Artwork: Front cover

RCA Records Nashville's noteworthy artist Rachel Wammack is a "dynamic new Country voice for the genre” (Rolling Stone) with her "deep-rooted, classic sound" (Wide Open Country) influenced heavily by the rich music history from her hometown of Muscle Shoals. Throughout her adolescent years, the 24-year-old expressed her art in songwriting, storytelling and the high school band, before earning a college degree from the University of North Alabama. At the age of 17, Wammack was discovered by a Sony Music Nashville executive at a piano restaurant which led to her record deal five years later and the release of her self-titled EP in April, helmed by award-winning producer Dann Huff. Showcasing “a strong woman who knows how to tap into her emotions and create something authentic,” (Taste of Country) the 4-song introductory features her autobiographical debut single "Damage," which she co-wrote with award-winning songwriters Tom Douglas and David Hodges. This year, Wammack has been named one of Rolling Stone’s "10 New Country Artists You Need To Know," Bobby Bones’ “Women of iHeartCountry,” CMT’s "Next Women of Country" and received a standing ovation during her Grand Ole Opry debut.

"The debut single from Sony Nashville powerhouse Rachel Wammack is a lyrical masterpiece. Wammack sounds a bit like Carrie Underwood, and her voice is one of the main assets that makes this song so great. Another exemplary facet of this song is how well she sells the emotion of the song and tells a riveting, compelling story. As someone who has had her fair share of experiences with love, I really connected to “Damage”, enough to where I was in tears by the end of the song. The only minor issue is the production, as I think a bit more steel guitar would be very beneficial. I doubt this will be a hit as country radio generally refuses female artists, actual country music or anything of remote substance, but I’m rooting for Rachel. This song deserves to be a hit."

Tracklist:

01. Enough
02. Damage
03. Hard to Believe
04. Closure
05. My Boyfriend Doesn't Speak for Me Anymore

foobar2000 1.3.7 / Dynamic Range Meter 1.1.1
log date: 2019-03-14 22:59:17

––––––––––––––––––––––––––––––––––––––––
Analyzed: Rachel Wammack / Enough
––––––––––––––––––––––––––––––––––––––––

DR Peak RMS Duration Track
––––––––––––––––––––––––––––––––––––––––
DR4 -0.23 dB -6.27 dB 3:23 01-Enough
DR7 -1.08 dB -10.58 dB 3:33 02-Damage
DR6 -1.06 dB -8.85 dB 3:27 03-Hard to Believe
DR6 -1.06 dB -9.96 dB 4:14 04-Closure
DR6 -1.04 dB -9.58 dB 3:34 05-My Boyfriend Doesn't Speak for Me Anymore
––––––––––––––––––––––––––––––––––––––––

Number of tracks: 5
Official DR value: DR6

Samplerate: 44100 Hz
Channels: 2
Bits per sample: 24
Bitrate: 1652 kbps
Codec: FLAC
================================================================================


All thanks go to the original releaser