Tags
Language
Tags
April 2024
Su Mo Tu We Th Fr Sa
31 1 2 3 4 5 6
7 8 9 10 11 12 13
14 15 16 17 18 19 20
21 22 23 24 25 26 27
28 29 30 1 2 3 4

Rebecca Ferguson - Superwoman (2016) [24-bit/96 kHz]

Posted By: v3122
Rebecca Ferguson - Superwoman (2016) [24-bit/96 kHz]

Rebecca Ferguson - Superwoman (2016)
FLAC (Tracks) 24-bit/96 kHz | Official Digital Download | Time: 00:43:57
Pop, Soul | Label: RCA Records | ~ 864 Mb

The fourth studio album from Britain's Rebecca Ferguson, 2016's Superwoman is a hooky, sophisticated production worthy of her immense talent. Blessed with an earthy, soulful wallop of a voice, Ferguson rose from modest beginnings in Liverpool as the daughter of Jamaican immigrants and a teen mom to acclaim as the runner-up on the British version of The X Factor in 2010. Since then, she's released three well-received albums, including her impressive 2015 Billie Holiday tribute, Lady Sings the Blues, which showcased her knack for interpreting jazz standards. She's also had her share of public struggles, including the difficulties of being a single working mom, dealing with depression, and suffering the emotional fallout from several failed relationships – including a 2014 romance that ended while she was pregnant with her third child. One gets the sense that Ferguson pours all of her feelings and experiences into her work, and Superwoman is no exception. Collaborating with a handful of in-demand writer/producers including Troy Miller (Laura Mvula, Zara McFarlane, Mika Urbaniak), Phil Cook (Ellie Goulding, Josh Osho, Kylie Minogue), and Matt Prime (Sam Smith, CeeLo Green, Olly Murs), Ferguson has crafted an album that balances R&B bravado and Motown-esque grooves with a folky, '70s-style melodicism. It's a vibrant, tactile combination that brings to mind favorable comparisons to similarly inclined contemporaries like Amos Lee, Ben Harper, and Adele. Cuts like "Mistress," "Stars," and "Don't Want You Back" are exuberant anthems, rife with messages of hard-won female empowerment and strength in the face of romantic and societal odds. It's a vibe she carries over with tender poignancy and fierce resoluteness on several acoustic guitar and piano-led ballads, including "Hold Me" and the yearning, folk-soul-tinged "The Way You're Looking at Her." However, it's the robust, cathartic title track, with its gigantic, sing-to-the-heavens chorus, that exemplifies the album's message of personal fortitude. She sings "And maybe I'm mad/And maybe I'm all cried out/Maybe I'm scared/But I'm comin' round." With Superwoman, Ferguson isn't just coming around, she's arrived.

by Matt Collar, allmusic
Rebecca Ferguson - Superwoman (2016):

Tracklist:

01 - Bones (00:03:48)
02 - Mistress (00:03:19)
03 - Hold Me (00:04:28)
04 - Superwoman (00:03:34)
05 - Stars (00:03:03)
06 - The Way You're Looking at Her (00:04:10)
07 - Pay for It (00:03:16)
08 - Oceans (00:03:22)
09 - Don't Want You Back (00:03:14)
10 - Without a Woman (00:04:20)
11 - Waiting for Me (00:03:50)
12 - I'll Meet You There (00:03:28)

foobar2000 1.4.2 / Dynamic Range Meter 1.1.1
log date: 2021-08-12 10:22:58

––––––––––––––––––––––––––––––––––––––––
Analyzed: Phil Cook / Superwoman (1)
Rebecca Ferguson / Superwoman (2-12)
––––––––––––––––––––––––––––––––––––––––

DR Peak RMS Duration Track
––––––––––––––––––––––––––––––––––––––––
DR6 -1.50 dB -8.99 dB 3:14 09-Don't Want You Back
DR6 -1.00 dB -9.67 dB 3:49 01-Bones
DR7 -1.00 dB -9.37 dB 3:20 02-Mistress
DR8 -1.00 dB -11.15 dB 4:29 03-Hold Me
DR7 -1.00 dB -9.37 dB 3:35 04-Superwoman
DR6 -1.00 dB -10.05 dB 3:03 05-Stars
DR7 -1.50 dB -10.36 dB 4:11 06-The Way You're Looking at Her
DR7 -1.00 dB -9.88 dB 3:16 07-Pay for It
DR6 -1.00 dB -9.54 dB 3:22 08-Oceans
DR6 -1.00 dB -8.67 dB 4:20 10-Without a Woman
DR6 -0.70 dB -8.88 dB 3:50 11-Waiting for Me
DR7 -0.70 dB -11.26 dB 3:28 12-I'll Meet You There
––––––––––––––––––––––––––––––––––––––––

Number of tracks: 12
Official DR value: DR7

Samplerate: 96000 Hz
Channels: 2
Bits per sample: 24
Bitrate: 1502 kbps
Codec: FLAC

All thanks go to the original releaser

Download Rebecca Ferguson - Superwoman (2016):